Ивановский Торрент трекер
Яндекс.Погода
 

[Цитировать]
HUNTER

Человек, которого зовут Флинтстоун
The Man Called Flintstone
«Their first full-length tune-full adventure!»
Год выпуска: 1966
Страна: США
Жанр: мультфильм, боевик, комедия, криминал, приключения, семейный, музыка
Продолжительность: 01:29:00
Перевод:
Профессиональный (Дублированный)
Профессиональный (Многоголосый закадровый) - Екатеринбург-Арт
Авторский (Одноголосый закадровый) - Л.Володарский
русские субтитры: есть-Режиссёр: Уильям Ханна : William Hanna, Джозеф Барбера : Joseph Barbera-Роли озвучивали: Элан Рид, Мэл Блэнк, Джин Ван дер Пил, Герри Джонсон, Дон Мессик, Дженет Уолдо, Пол Фресс
Роли дублировали: Александр Новиков, Вячеслав Баранов, Елена Соловьева, Ольга Голованова, Борис Шувалов-Описание: Мультфильм является пародией на т. н. бондиану. Фред Флинстоун нанят секретной организацией на место Рока Слэга, поскольку случайно оказался внешне неотличим от этого агента. Его миссия: отправиться в Европу (под видом семейного отпуска) и схватить Зелёного Гуся.- [url=_] [/url] релиз: -- Большое спасибо alenavova за дорогу Леонида Володарского;
- Большое спасибо m1nor за оцифровку Екатеринбург-Арт;
- Работа с WEB-DL и звуком -Azureus--Качество: WEB-DL 1080p
Формат: MKV
Видео кодек: AVC
Аудио кодек: AC3
Видео: 1900x1072 , 23,976 fps, ~4035 kbps avg, 0.183 bit/pixel
Аудио #1: [RUS] 48 kHz, AC3 Dolby Digital, 1 ch, ~192 kbps avg - DUB
Аудио #2: [RUS] 48 kHz, AC3 Dolby Digital, 1 ch, ~192 kbps avg - MVO
Аудио #3: [RUS] 48 kHz, AC3 Dolby Digital, 1 ch, ~192 kbps avg - AVO
Аудио #4: [ENG] 48 kHz, AC3 Dolby Digital, 1 ch, ~192 kbps avg
субтитры: русские, английские
навигация по главам: 18 глав (именные)

MediaInfo

Общее
Уникальный идентификатор : 213179641513180202793924731830441470960 (0xA060E7CFA9133F68912D2850D4F9EBF0)
Полное имя : D:\Im\The Man Called Flintstone\The Man Called Flintstone.1966.WEB-DL 1080p.mkv
Формат : Matroska
Версия формата : Version 4 / Version 2
Размер файла : 3,59 Гбайт
Продолжительность : 1 ч. 29 м.
Общий поток : 5782 Кбит/сек
Название фильма : The Man Called Flintstone.1966.WEB-DL 1080p -Azureus-
Дата кодирования : UTC 2015-05-08 12:21:31
Программа кодирования : mkvmerge v7.8.0 ('River Man') 32bit built on Mar 27 2015 16:18:02
Библиотека кодирования : libebml v1.3.1 + libmatroska v1.4.2
DURATION : 01:28:39.630000000
NUMBER_OF_FRAMES : 1091
NUMBER_OF_BYTES : 62080
_STATISTICS_WRITING_APP : mkvmerge v7.8.0 ('River Man') 32bit built on Mar 27 2015 16:18:02
_STATISTICS_WRITING_DATE_UTC : 2015-05-08 12:21:31
_STATISTICS_TAGS : BPS DURATION NUMBER_OF_FRAMES NUMBER_OF_BYTES
Видео
Идентификатор : 1
Формат : AVC
Формат/Информация : Advanced Video Codec
Профиль формата : High@L4.0
Параметр CABAC формата : Да
Параметр ReFrames формата : 4 кадра
Идентификатор кодека : V_MPEG4/ISO/AVC
Продолжительность : 1 ч. 29 м.
Битрейт : 4899 Кбит/сек
Ширина : 1900 пикселей
Высота : 1072 пикселя
Соотношение сторон : 16:9
Частота кадров : 23,976 кадра/сек
Цветовое пространство : YUV
Субдискретизация насыщенности : 4:2:0
Битовая глубина : 8 бит
Тип развёртки : Прогрессивная
Бит/(Пиксели*Кадры) : 0.100
Размер потока : 3,05 Гбайт (85%)
Язык : English
Default : Да
Forced : Нет
Основные цвета : BT.709-5, BT.1361, IEC 61966-2-4, SMPTE RP177
Характеристики трансфера : BT.709-5, BT.1361
Коэффициенты матрицы : BT.709-5, BT.1361, IEC 61966-2-4 709, SMPTE RP177
Аудио #1
Идентификатор : 2
Формат : AC-3
Формат/Информация : Audio Coding 3
Расширение режима : CM (complete main)
Идентификатор кодека : A_AC3
Продолжительность : 1 ч. 29 м.
Вид битрейта : Постоянный
Битрейт : 192 Кбит/сек
Каналы : 1 канал
Расположение каналов : Front: C
Частота : 48,0 КГц
Битовая глубина : 16 бит
Метод сжатия : С потерями
Размер потока : 122 Мбайт (3%)
Заголовок : DUB
Язык : Russian
Default : Да
Forced : Нет
Аудио #2
Идентификатор : 3
Формат : AC-3
Формат/Информация : Audio Coding 3
Расширение режима : CM (complete main)
Идентификатор кодека : A_AC3
Продолжительность : 1 ч. 29 м.
Вид битрейта : Постоянный
Битрейт : 192 Кбит/сек
Каналы : 1 канал
Расположение каналов : Front: C
Частота : 48,0 КГц
Битовая глубина : 16 бит
Метод сжатия : С потерями
Размер потока : 122 Мбайт (3%)
Заголовок : MVO - Екатеринбург-Арт
Язык : Russian
Default : Нет
Forced : Нет
Аудио #3
Идентификатор : 4
Формат : AC-3
Формат/Информация : Audio Coding 3
Расширение режима : CM (complete main)
Идентификатор кодека : A_AC3
Продолжительность : 1 ч. 29 м.
Вид битрейта : Постоянный
Битрейт : 192 Кбит/сек
Каналы : 1 канал
Расположение каналов : Front: C
Частота : 48,0 КГц
Битовая глубина : 16 бит
Метод сжатия : С потерями
Размер потока : 122 Мбайт (3%)
Заголовок : AVO - Л.Володарский
Язык : Russian
Default : Нет
Forced : Нет
Аудио #4
Идентификатор : 5
Формат : AC-3
Формат/Информация : Audio Coding 3
Расширение режима : CM (complete main)
Идентификатор кодека : A_AC3
Продолжительность : 1 ч. 29 м.
Вид битрейта : Постоянный
Битрейт : 192 Кбит/сек
Каналы : 1 канал
Расположение каналов : Front: C
Частота : 48,0 КГц
Битовая глубина : 16 бит
Метод сжатия : С потерями
Размер потока : 122 Мбайт (3%)
Заголовок : ENG
Язык : English
Default : Нет
Forced : Нет
Текст #1
Идентификатор : 6
Формат : UTF-8
Идентификатор кодека : S_TEXT/UTF8
Идентификатор кодека/Информация : UTF-8 Plain Text
Заголовок : Rus Sub
Язык : Russian
Default : Нет
Forced : Нет
Текст #2
Идентификатор : 7
Формат : UTF-8
Идентификатор кодека : S_TEXT/UTF8
Идентификатор кодека/Информация : UTF-8 Plain Text
Заголовок : Eng Sub
Язык : English
Default : Нет
Forced : Нет
Меню
00:00:00.000 : en:Credits.
00:01:18.000 : en:Secret agent man.
00:06:56.000 : en:To the vet.
00:09:56.000 : en:Hospital visit.
00:16:53.000 : en:Spy-type guy.
00:21:43.000 : en:Change of plans.
00:27:59.000 : en:Flight to Paris.
00:33:32.000 : en:Paris sightseeing.
00:39:00.000 : en:Rome by moonlight.
00:46:14.000 : en:Wishes come true.
00:49:12.000 : en:Help me.
00:54:29.000 : en:For the kids.
01:01:47.000 : en:Unfinished business.
01:08:22.000 : en:Secret headquarters.
01:14:40.000 : en:The great escape.
01:22:15.000 : en:It's up to us.
01:25:34.000 : en:Gone fishing.
01:27:56.000 : en:End Credits.
____________________________________________
Стою на раздаче до 5 дней.
Просьба скачавшим как можно дольше не покидать раздачу!
ВСЕМ ПРИЯТНОГО ПРОСМОТРА!_________________________________________
0 человек читают эту тему: 0 пользователей, 0 скрытых пользователей, 0 гостей

Показать сообщения:    

Текущее время: 22-Авг 23:47

Часовой пояс: UTC - 1


Вы не можете начинать темы
Вы не можете отвечать на сообщения
Вы не можете редактировать свои сообщения
Вы не можете удалять свои сообщения
Вы не можете голосовать в опросах
Вы не можете прикреплять файлы к сообщениям
Вы не можете скачивать файлы

!ВНИМАНИЕ!
Сайт не предоставляет электронные версии произведений, а занимается лишь коллекционированием и каталогизацией ссылок, присылаемых и публикуемых на форуме нашими читателями. Если вы являетесь правообладателем какого-либо представленного материала и не желаете, чтобы ссылка на него находилась в нашем каталоге, свяжитесь с нами, и мы незамедлительно удалим ее. Файлы для обмена на трекере предоставлены пользователями сайта, и администрация не несет ответственности за их содержание. Просьба не заливать файлы, защищенные авторскими правами, а также файлы нелегального содержания!