Важное объявление!
У Нас Все раздачи мультитрекерные, при нуле пиров в релизах, можете смело вставать на закачку!
 
Автор Сообщение

HUNTER

Стаж:
4 года 7 месяцев
Сообщений:
61521

Репутация: 101

[+] [-]
Вне форума [Профиль] [ЛС]

Человек, которого заставили убивать / Принужденный убивать / Forced to Kill / Obligado a matar / Dans la gueule du loup / Costretto ad uccidere
Страна: США
Жанр: боевик
Год выпуска: 1994
Продолжительность: 01:38:05
Перевод: Одноголосый закадровый Переводчик не опознан
Cубтитры: немецкие
Оригинальная аудиодорожка: английский
Режиссер: Расселл Солберг / Russell Solberg
В ролях: Кори Майкл Юбэнкс, Майкл Айронсайд, Рэнс Ховард, Кари Уитман, Дон Суэйзи, Мики Джонс, Клинт Ховард
Описание: Некоторые купят машину в кредит, а потом не выплачивают регулярные взносы. Человек, профессионально занимающийся возвратом таких машин, должен уметь драться и постоять за себя. А на каком-то загородном ранчо кто-то устраивает незаконные драки - подпольные гладиаторские бои. Итак, завязка есть, но всё это уже давно было. Майкл Айронсайд хорош, как обычно, в роли продажного шерифа, впрочем играть плохо он не умеет.
Доп. информация: Диск из собственной коллекции.
Бонусы: Разделение по главам отсутствует.
Сэмпл: http://sendfile.su/1151832
Тип релиза: DVD9 (custom)
Контейнер: DVD-Video
Видео: PAL 4:3 (720x576) VBR
Аудио: Russian (Dolby AC3, 224 Kbps, 2 ch)
Аудио 2: English (Dolby AC3, 224 Kbps, 2 ch)
Аудио 3: English (Dolby AC3, 448 Kbps, 6 ch)
Аудио 4: English (DTS, 755 Kbps, 6 ch)
Формат субтитров: prerendered (DVD/IDX+SUB)

DVDInfo

Size: 4.39 Gb ( 4 598 146 KBytes ) - DVD-9
Enabled regions: 1, 2, 3, 4, 5, 6, 7, 8
VTS_01 :
Play Length: 00:02:31+00:02:29+00:02:22+00:02:00+01:28:43
Video: PAL 4:3 (720x576) VBR
Audio:
Russian (Dolby AC3, 2 ch)
English (Dolby AC3, 2 ch)
English (Dolby AC3, 6 ch)
English (DTS, 6 ch)
Subtitles:
German
Menu Video:
PAL 4:3 (720x576) VBR
Menu Audio:
Not specified (Dolby AC3, 2 ch)
Menu Subtitles:
Not specified
Menu English Language Unit :
Root Menu

MediaInfo

General
Complete name : K:\Forced to Kill_1994\VIDEO_TS\VTS_01_1.VOB
Format : MPEG-PS
File size : 1 024 MiB
Duration : 15mn 33s
Overall bit rate mode : Variable
Overall bit rate : 9 203 Kbps
Video
ID : 224 (0xE0)
Format : MPEG Video
Format version : Version 2
Format profile : Main@Main
Format settings, BVOP : Yes
Format settings, Matrix : Custom
Format settings, GOP : M=3, N=12
Duration : 15mn 33s
Bit rate mode : Variable
Bit rate : 7 369 Kbps
Width : 720 pixels
Height : 576 pixels
Display aspect ratio : 4:3
Frame rate : 25.000 fps
Standard : PAL
Color space : YUV
Chroma subsampling : 4:2:0
Bit depth : 8 bits
Scan type : Interlaced
Scan order : Top Field First
Compression mode : Lossy
Bits/(Pixel*Frame) : 0.711
Stream size : 820 MiB (80%)
Audio #1
ID : 189 (0xBD)-128 (0x80)
Format : AC-3
Format/Info : Audio Coding 3
Mode extension : CM (complete main)
Format settings, Endianness : Big
Muxing mode : DVD-Video
Duration : 15mn 33s
Bit rate mode : Constant
Bit rate : 224 Kbps
Channel(s) : 2 channels
Channel positions : Front: L R
Sampling rate : 48.0 KHz
Bit depth : 16 bits
Compression mode : Lossy
Delay relative to video : -80ms
Stream size : 24.9 MiB (2%)
Audio #2
ID : 189 (0xBD)-129 (0x81)
Format : AC-3
Format/Info : Audio Coding 3
Mode extension : CM (complete main)
Format settings, Endianness : Big
Muxing mode : DVD-Video
Duration : 6s 176ms
Bit rate mode : Constant
Bit rate : 224 Kbps
Channel(s) : 2 channels
Channel positions : Front: L R
Sampling rate : 48.0 KHz
Bit depth : 16 bits
Compression mode : Lossy
Stream size : 169 KiB (0%)
Audio #3
ID : 189 (0xBD)-130 (0x82)
Format : AC-3
Format/Info : Audio Coding 3
Mode extension : CM (complete main)
Format settings, Endianness : Big
Muxing mode : DVD-Video
Duration : 6s 176ms
Bit rate mode : Constant
Bit rate : 448 Kbps
Channel(s) : 6 channels
Channel positions : Front: L C R, Side: L R, LFE
Sampling rate : 48.0 KHz
Bit depth : 16 bits
Compression mode : Lossy
Stream size : 338 KiB (0%)
Audio #4
ID : 189 (0xBD)-139 (0x8B)
Format : DTS
Format/Info : Digital Theater Systems
Muxing mode : DVD-Video
Duration : 6s 229ms
Bit rate mode : Constant
Bit rate : 755 Kbps
Channel(s) : 6 channels
Channel positions : Front: L C R, Side: L R, LFE
Sampling rate : 48.0 KHz
Bit depth : 24 bits
Compression mode : Lossy
Stream size : 574 KiB (0%)
Text
ID : 189 (0xBD)-32 (0x20)
Format : RLE
Format/Info : Run-length encoding
Muxing mode : DVD-Video
Delay relative to video : 7s 200ms
Menu

Постер и обложка

Скриншоты меню

Скриншоты


_________________
Показать сообщения:    

Текущее время: Сегодня 16:39

Часовой пояс: GMT



Вы не можете начинать темы
Вы не можете отвечать на сообщения
Вы не можете редактировать свои сообщения
Вы не можете удалять свои сообщения
Вы не можете голосовать в опросах
Вы не можете прикреплять файлы к сообщениям
Вы не можете скачивать файлы
Наши партнеры: интернет магазин Ивановского трикотажа textilla.ru