Ивановский Торрент трекер
Яндекс.Погода
 

[Цитировать]
HUNTER

Человек из стали / Man of Steel-Год выпуска: 2013
Страна: США, Канада, Великобритания
Жанр: фантастика, фэнтези, боевик, приключения
Продолжительность: 2 ч. 23 м.
Перевод: Дублированный [Лицензия]
Субтитры: отсутствуют-В ролях: Генри Кавилл, Эми Адамс, Майкл Шеннон, Кевин Костнер, Дайан Лэйн, Лоренс Фишбёрн, Антье Трое, Айелет Зурер, Рассел Кроу, Гарри Дж. Ленникс
Режиссёр: Зак Снайдер-Описание:
Кларк Кент/Кал-Эл — молодой человек, который чувствует себя чужаком из-за своей невероятной силы. Много лет назад он был отправлен на Землю с развитой планеты Криптон, и теперь задается вопросом: зачем?
Воспитанный приемными родителями Мартой и Джонатаном Кентами, Кларк знает: обладать сверхспособностями — значит принимать сложные решения. Но когда человечество более всего нуждается в стабильности, оно подвергается нападению. Сможет ли герой восстановить мир, или воспользуется своей силой для того, чтобы окончательно его разрушить?-Качество: BDRemux 1080p
Формат: Matroska
Видео кодек: AVC
Аудио кодек: AC3
Видео: AVC | 20,5 Мбит/сек | 1920x1080 | 23,976 кадра/сек
Аудио: AC3 | 48,0 КГц | 6 каналов | 640 Кбит/сек
Дополнительно: Сохранены оригинальные чаптеры, как на Blu-Ray

MediaInfo

Видео
Идентификатор : 1
Формат : AVC
Формат/Информация : Advanced Video Codec
Профиль формата : [url=mailto:High@L4.1]High@L4.1[/url]
Параметр CABAC формата : Да
Параметр ReFrames формата : 2 кадра
Идентификатор кодека : V_MPEG4/ISO/AVC
Продолжительность : 2 ч. 23 м.
Вид битрейта : Переменный
Битрейт : 20,5 Мбит/сек
Ширина : 1920 пикселей
Высота : 1080 пикселей
Соотношение сторон : 16:9
Режим частоты кадров : Постоянный
Частота кадров : 23,976 кадра/сек
Цветовое пространство : YUV
Субдискретизация насыщенности : 4:2:0
Битовая глубина : 8 бит
Тип развёртки : Прогрессивная
Бит/(Пиксели*Кадры) : 0.412
Размер потока : 20,5 Гбайт (95%)
Default : Да
Forced : Нет
Аудио
Идентификатор : 2
Формат : AC-3
Формат/Информация : Audio Coding 3
Расширение режима : CM (complete main)
Параметр Endianness формата : Big
Идентификатор кодека : A_AC3
Продолжительность : 2 ч. 23 м.
Вид битрейта : Постоянный
Битрейт : 640 Кбит/сек
Каналы : 6 каналов
Расположение каналов : Front: L C R, Side: L R, LFE
Частота : 48,0 КГц
Битовая глубина : 16 бит
Метод сжатия : С потерями
Размер потока : 655 Мбайт (3%)
Default : Да
Forced : Нет
Меню
00:00:00.000 : en:Chapter 01
00:11:16.967 : en:Chapter 02
00:20:01.450 : en:Chapter 03
00:30:09.474 : en:Chapter 04
00:39:21.609 : en:Chapter 05
00:48:57.643 : en:Chapter 06
00:59:03.414 : en:Chapter 07
01:08:57.883 : en:Chapter 08
01:17:35.108 : en:Chapter 09
01:28:36.185 : en:Chapter 10
01:40:47.791 : en:Chapter 11
01:50:55.857 : en:Chapter 12
02:00:53.579 : en:Chapter 13
02:10:13.555 : en:Chapter 14
02:12:49.920 : en:Chapter 15
02:23:02.365 : en:Chapter 16
-

Скриншоты

[thumb]
0 человек читают эту тему: 0 пользователей, 0 скрытых пользователей, 0 гостей

Показать сообщения:    

Текущее время: 23-Авг 14:52

Часовой пояс: UTC - 1


Вы не можете начинать темы
Вы не можете отвечать на сообщения
Вы не можете редактировать свои сообщения
Вы не можете удалять свои сообщения
Вы не можете голосовать в опросах
Вы не можете прикреплять файлы к сообщениям
Вы не можете скачивать файлы

!ВНИМАНИЕ!
Сайт не предоставляет электронные версии произведений, а занимается лишь коллекционированием и каталогизацией ссылок, присылаемых и публикуемых на форуме нашими читателями. Если вы являетесь правообладателем какого-либо представленного материала и не желаете, чтобы ссылка на него находилась в нашем каталоге, свяжитесь с нами, и мы незамедлительно удалим ее. Файлы для обмена на трекере предоставлены пользователями сайта, и администрация не несет ответственности за их содержание. Просьба не заливать файлы, защищенные авторскими правами, а также файлы нелегального содержания!