Важное объявление!
У Нас Все раздачи мультитрекерные, при нуле пиров в релизах, можете смело вставать на закачку!
Статистика раздачи
Размер:     |    Зарегистрирован:     |    Скачан:     |   
Нет
 
     
 
 
Автор Сообщение

HUNTER

Стаж:
5 лет
Сообщений:
67945

Репутация: 101

[+] [-]
Вне форума [Профиль] [ЛС]

Странник из Кентукки / Кентуккиец / The Kentuckian
Страна: США
Студия: Hecht-Lancaster Productions
Жанр: вестерн
Год выпуска: 1955
Продолжительность: 01:39:33
Перевод: Профессиональный (двухголосый закадровый) НТВ+
Перевод 2: Авторский (одноголосый закадровый) С. Кузнецов
Cубтитры: английские
Оригинальная аудиодорожка: английский
Режиссер: Берт Ланкастер / Burt Lancaster
В ролях: Берт Ланкастер, Дональд Макдональд, Диана Линн, Даяна Фостер, Уолтер Маттхау
Описание: Режиссерский дебют Берта Ланкастера (1955г.), в котором он же сыграл главную роль. Действие вестерна происходит в 1820-х годах. Большой Эли Уэйкфилд (Ланкастер) и его сын Маленький Эли - закаленные искатели приключений. Мечтая осуществить свою мечту и поселиться на границе Техаса, они отправляются в путешествие. Путь оказывается не простой, но сложнее всего бороться не с дикой природой, а с опасными людьми.
II Сэмпл II IMDB II
Тип релиза: HDTV 1080i
Контейнер: MKV
Видео: AVC / 1920x1080 / 16:9 / 25.0fps / Bit rate 5721Kbps / High@L4.0
Аудио 1: AC3 / 48.0KHz / 2ch. / 192kbps / rus / dvo / НТВ+
Аудио 2: AC3 / 48.0KHz / 2ch. / 192kbps / rus / avo / С. Кузнецов
Аудио 3: AC3 / 48.0KHz / 2ch. / 192kbps / eng
Формат субтитров: softsub (SRT)

MediaInfo

Общее
Уникальный идентификатор : 245597161902587885268882057058316211430 (0xB8C44AF754BBC23BA35897C4576054E6)
Полное имя : E:\torrent\The Kentuckian.1955.HDTV1080i.mkv
Формат : Matroska
Версия формата : Version 4 / Version 2
Размер файла : 4,47 Гбайт
Продолжительность : 1 ч. 39 м.
Общий поток : 6425 Кбит/сек
Дата кодирования : UTC 2014-10-29 00:32:39
Программа кодирования : mkvmerge v7.2.0 ('On Every Street') 64bit built on Sep 13 2014 15:52:10
Библиотека кодирования : libebml v1.3.0 + libmatroska v1.4.1
DURATION : 01:37:36.038000000
NUMBER_OF_FRAMES : 914
NUMBER_OF_BYTES : 34332
_STATISTICS_WRITING_APP : mkvmerge v7.2.0 ('On Every Street') 64bit built on Sep 13 2014 15:52:10
_STATISTICS_WRITING_DATE_UTC : 2014-10-29 00:32:39
_STATISTICS_TAGS : BPS DURATION NUMBER_OF_FRAMES NUMBER_OF_BYTES
Видео
Идентификатор : 1
Формат : AVC
Формат/Информация : Advanced Video Codec
Профиль формата : High@L4.0
Параметр CABAC формата : Да
Параметр ReFrames формата : 3 кадра
Идентификатор кодека : V_MPEG4/ISO/AVC
Продолжительность : 1 ч. 39 м.
Битрейт : 5721 Кбит/сек
Ширина : 1920 пикселей
Высота : 1080 пикселей
Соотношение сторон : 16:9
Режим частоты кадров : Постоянный
Частота кадров : 25,000 кадров/сек
Стандарт вещания : Component
Цветовое пространство : YUV
Субдискретизация насыщенности : 4:2:0
Битовая глубина : 8 бит
Тип развёртки : Чересстрочная
Порядок развёртки : Верхнее поле первое
Бит/(Пиксели*Кадры) : 0.110
Размер потока : 3,98 Гбайт (89%)
Заголовок : The Kentuckian.1955.HDTV1080i
Default : Да
Forced : Нет
Основные цвета : BT.709
Характеристики трансфера : BT.709
Коэффициенты матрицы : BT.709
Аудио #1
Идентификатор : 2
Формат : AC-3
Формат/Информация : Audio Coding 3
Расширение режима : CM (complete main)
Параметр Endianness формата : Big
Идентификатор кодека : A_AC3
Продолжительность : 1 ч. 39 м.
Вид битрейта : Постоянный
Битрейт : 192 Кбит/сек
Каналы : 2 канала
Расположение каналов : Front: L R
Частота : 48,0 КГц
Битовая глубина : 16 бит
Метод сжатия : С потерями
Размер потока : 137 Мбайт (3%)
Заголовок : rus / dvo / NTV+ / AC3 / 48KHz / 2ch / 192Kbps
Язык : Russian
Default : Да
Forced : Нет
Аудио #2
Идентификатор : 3
Формат : AC-3
Формат/Информация : Audio Coding 3
Расширение режима : CM (complete main)
Параметр Endianness формата : Big
Идентификатор кодека : A_AC3
Продолжительность : 1 ч. 39 м.
Вид битрейта : Постоянный
Битрейт : 192 Кбит/сек
Каналы : 2 канала
Расположение каналов : Front: L R
Частота : 48,0 КГц
Битовая глубина : 16 бит
Метод сжатия : С потерями
Размер потока : 137 Мбайт (3%)
Заголовок : rus / avo / AC3 / 48KHz / 2ch / 192Kbps
Язык : Russian
Default : Нет
Forced : Нет
Аудио #3
Идентификатор : 4
Формат : AC-3
Формат/Информация : Audio Coding 3
Расширение режима : CM (complete main)
Параметр Endianness формата : Big
Идентификатор кодека : A_AC3
Продолжительность : 1 ч. 39 м.
Вид битрейта : Постоянный
Битрейт : 192 Кбит/сек
Каналы : 2 канала
Расположение каналов : Front: L R
Частота : 48,0 КГц
Битовая глубина : 16 бит
Метод сжатия : С потерями
Размер потока : 137 Мбайт (3%)
Заголовок : eng / AC3 / 48KHz / 2ch / 192Kbps
Язык : English
Default : Нет
Forced : Нет
Текст
Идентификатор : 5
Формат : UTF-8
Идентификатор кодека : S_TEXT/UTF8
Идентификатор кодека/Информация : UTF-8 Plain Text
Заголовок : subtitle eng
Язык : English
Default : Нет
Forced : Нет

Скриншот с названием фильма

Скриншоты


Сравнение с DVD





_________________
Показать сообщения:    

Текущее время: Сегодня 04:54

Часовой пояс: GMT



Вы не можете начинать темы
Вы не можете отвечать на сообщения
Вы не можете редактировать свои сообщения
Вы не можете удалять свои сообщения
Вы не можете голосовать в опросах
Вы не можете прикреплять файлы к сообщениям
Вы не можете скачивать файлы