Важное объявление!
У Нас Все раздачи мультитрекерные, при нуле пиров в релизах, можете смело вставать на закачку!
Статистика раздачи
Размер:     |    Зарегистрирован:     |    Скачан:     |   
Нет
 
     
 
 
Автор Сообщение

HUNTER

Стаж:
5 лет 1 месяц
Сообщений:
68429

Репутация: 101

[+] [-]
Вне форума [Профиль] [ЛС]

Человек в железной маске / The Man in the Iron Mask
Страна: Австралия
Жанр: приключения, семейный
Продолжительность: 00:52:45
Год выпуска: 1985
Перевод: Профессиональный (многоголосый закадровый)
Русские субтитры: нет

Режиссёр: Уорвик Гилберт / Warwick Gilbert
Роли озвучивали: Колин Фрилз, Гвен Пламб, Джон Майллон, Эрл Кросс, Уоллас Итон, Белинда Гиблин, Брайан Харрисон, Филлип Хинтон, Ли Джеймс. Ричард Майкл
Описание: Знаменитые мушкетеры Александра Дюма - снова требуется их помощь. Несмотря на то, что карьера мушкетеров уже приближается к концу, их созывают, чтобы защитить французского короля Луи XIV и вызволить его из тюрьмы, посадив вместо него его брата - близнеца.
Качество: DVDRip
Формат: AVI
Видео: 640x480 (1.33:1), 25 fps, XviD build 73 ~1763 kbps avg, 0.23 bit/pixel
Аудио: 48 kHz, AC3 Dolby Digital, 2/0 (L,R) ch, ~192 kbps
Субтитры: отсутствуют

Сравнение

http://rutracker.org/forum/viewtopic.php?t=3470921
http://screenshotcomparison.com/comparison/150829
оцифровка с VHS записи с ТВ
другой формат, реклама, помехи
скрытый текст

но наполнение чуть больше и всё-таки исходник звука

Подробные технические данные

ОбщееПолное имя : H:\The.Man.in.the.Iron.Mask.1985.dvdrip_[745]_[teko].aviФормат : AVIФормат/Информация : Audio Video InterleaveРазмер файла : 742 МбайтПродолжительность : 52 м.Общий поток : 1965 Кбит/секПрограмма кодирования : VirtualDubMod 1.5.10.3 | www.virtualdub-fr.org || (build 2550/release)Библиотека кодирования : VirtualDubMod build 2550/release
ВидеоИдентификатор : 0Формат : MPEG-4 VisualПрофиль формата : Advanced Simple@L5Параметр BVOP формата : 2Параметр QPel формата : НетПараметр GMC формата : Без точки переходаПараметр матрицы формата : ВыборочнаяИдентификатор кодека : XVIDИдентификатор кодека/Подсказка : XviDПродолжительность : 52 м.Битрейт : 1763 Кбит/секШирина : 640 пикселейВысота : 480 пикселейСоотношение сторон : 4:3Частота кадров : 25,000 кадров/секЦветовое пространство : YUVСубдискретизация насыщенности : 4:2:0Битовая глубина : 8 битТип развёртки : ПрогрессивнаяМетод сжатия : С потерямиБит/(Пиксели*Кадры) : 0.230Размер потока : 665 Мбайт (90%)Библиотека кодирования : XviD 73
АудиоИдентификатор : 1Формат : AC-3Формат/Информация : Audio Coding 3Расширение режима : CM (complete main)Параметр Endianness формата : BigИдентификатор кодека : 2000Продолжительность : 52 м.Вид битрейта : ПостоянныйБитрейт : 192 Кбит/секКаналы : 2 каналаРасположение каналов : Front: L RЧастота : 48,0 КГцБитовая глубина : 16 битМетод сжатия : С потерямиРазмер потока : 72,5 Мбайт (10%)Выравнивание : Разделение по промежуткамПродолжительность промежутка : 40 мс. (1,00 видеокадр)Время предзагрузки промежутка : 500 мс.
Релиз группы:
--

_________________
Показать сообщения:    

Текущее время: Сегодня 11:09

Часовой пояс: GMT



Вы не можете начинать темы
Вы не можете отвечать на сообщения
Вы не можете редактировать свои сообщения
Вы не можете удалять свои сообщения
Вы не можете голосовать в опросах
Вы не можете прикреплять файлы к сообщениям
Вы не можете скачивать файлы