Ивановский Торрент трекер
Яндекс.Погода
 

[Цитировать]
HUNTER

Керити, жилище сказок / Kérity, la maison des contes
Страна: Франция, Италия
Жанр: семейный, приключения
Продолжительность: 01:13:00
Год выпуска: 2009
Перевод: Одноголосый закадровый - текст читает Дмитрий Рыбин по переводу Snark_X, KARINA86, olesyarodionova
Русские субтитры: нет
Режиссёр: Доминик Монфери / Dominique Monfery
Описание: Натаниэлю скоро будет 7, но он ещё не умеет читать… Поэтому когда его тетя Элеонор передает ему свою библиотеку, состоящую из сотни книг, Натаниэль очень расстроен! Однако, каждая из его сказок хранит удивительный секрет: когда опускатеся ночь, маленькие герои, прелестная Алис, вредная фея Карабос и ужасный капитан Кроше, выходят из книжек… Они должны предупредить Натаниэля, что находятся под огромной опасностью и рискуют навсегда исчезнуть. Чтобы спасти свою маленьких друзей и их истории, Натаниэль уменьшается феей Карабос, чтобы пуститься в приключения. Он будет храбро противостоять коварному Рамасту, огромным крабам, голодному людоеду…
Сможет ли он прочитать магическую формулу, которая всех спасет? Если это не изобретено, не значит, что этого не существует.
Семпл: https://yadi.sk/i/P4KRwEBx39oVfF
Качество: DVDRip
Формат: MKV
Видео: AVC, 1024x576, 25.000 fps, 1 944 Kbps
Аудио: AC-3, 48000 Hz, 2 ch, 192 Kbps [RUS]
Аудио 2: AC-3, 48000 Hz, 2 ch, 512 Kbps [FRA]
Субтитры: отсутсвуют
Альтернативные раздачи

Подробные технические данные

General
Unique ID : 230266545799627515357133794359189110730 (0xAD3BB93C2F8DB0A085FADB69B9BEFFCA)
Complete name : D:\Kerity_la maison des contes.mkv
Format : Matroska
Format version : Version 4 / Version 2
File size : 1.39 GiB
Duration : 1 h 13 min
Overall bit rate mode : Variable
Overall bit rate : 2 702 kb/s
Encoded date : UTC 2017-01-19 11:07:17
Writing application : mkvmerge v9.6.0 ('Slave To Your Mind') 64bit
Writing library : libebml v1.3.4 + libmatroska v1.4.5
Video
ID : 1
Format : AVC
Format/Info : Advanced Video Codec
Format profile : High@L4.1
Format settings, CABAC : Yes
Format settings, ReFrames : 2 frames
Format settings, GOP : M=3, N=25
Codec ID : V_MPEG4/ISO/AVC
Duration : 1 h 13 min
Bit rate mode : Variable
Bit rate : 1 996 kb/s
Maximum bit rate : 3 000 kb/s
Width : 1 024 pixels
Height : 576 pixels
Display aspect ratio : 16:9
Frame rate mode : Constant
Frame rate : 25.000 FPS
Color space : YUV
Chroma subsampling : 4:2:0
Bit depth : 8 bits
Scan type : Progressive
Bits/(Pixel*Frame) : 0.135
Stream size : 1.03 GiB (74%)
Default : Yes
Forced : No
Audio #1
ID : 2
Format : AC-3
Format/Info : Audio Coding 3
Format settings, Endianness : Big
Codec ID : A_AC3
Duration : 1 h 13 min
Bit rate mode : Constant
Bit rate : 192 kb/s
Channel(s) : 2 channels
Channel positions : Front: L R
Sampling rate : 48.0 kHz
Frame rate : 31.250 FPS (1536 spf)
Bit depth : 16 bits
Compression mode : Lossy
Stream size : 101 MiB (7%)
Title : Kerity_rus VO
Language : Russian
Service kind : Complete Main
Default : Yes
Forced : Yes
Audio #2
ID : 3
Format : AC-3
Format/Info : Audio Coding 3
Format settings, Endianness : Big
Codec ID : A_AC3
Duration : 1 h 13 min
Bit rate mode : Constant
Bit rate : 512 kb/s
Channel(s) : 2 channels
Channel positions : Front: L R
Sampling rate : 48.0 kHz
Frame rate : 31.250 FPS (1536 spf)
Bit depth : 16 bits
Compression mode : Lossy
Stream size : 270 MiB (19%)
Service kind : Complete Main
Default : No
Forced : No

Скриншоты







Показать сообщения:    

Текущее время: 22-Май 02:21

Часовой пояс: UTC ± 0


Вы не можете начинать темы
Вы не можете отвечать на сообщения
Вы не можете редактировать свои сообщения
Вы не можете удалять свои сообщения
Вы не можете голосовать в опросах
Вы не можете прикреплять файлы к сообщениям
Вы не можете скачивать файлы

!ВНИМАНИЕ!
Сайт не предоставляет электронные версии произведений, а занимается лишь коллекционированием и каталогизацией ссылок, присылаемых и публикуемых на форуме нашими читателями. Если вы являетесь правообладателем какого-либо представленного материала и не желаете, чтобы ссылка на него находилась в нашем каталоге, свяжитесь с нами, и мы незамедлительно удалим ее. Файлы для обмена на трекере предоставлены пользователями сайта, и администрация не несет ответственности за их содержание. Просьба не заливать файлы, защищенные авторскими правами, а также файлы нелегального содержания!