Ивановский Торрент трекер
Яндекс.Погода
 

[Цитировать]
HUNTER

Человек-паук: Возвращение домойSpider-Man: Homecoming«Homework can wait. The city can't»-
Год выпуска: 2017
Страна: США
Жанр: фантастика, боевик, приключения

Продолжительность: 02:02:52
Перевод: Профессиональный (полное дублирование) [Звук TS]
Субтитры: Нет-Примечание: В начале фильма реклама вырезана! Присутствует текстовая и звуковая реклама!-Режиссёр
Джон Уоттс
Jon Watts
В ролях: Том Холланд (Peter Parker / Spider-Man), Роберт Дауни мл. (Tony Stark / Iron Man), Майкл Китон (Adrian Toomes / Vulture), Мариса Томей (May Parker), Джон Фавро (Happy Hogan), Джейкоб Баталон (Ned), Зендея (Michelle), Лора Хэрриер (Liz), Тони Револори (Flash), Дональд Гловер (Aaron Davis), Гвинет Пэлтроу (Pepper Potts), Боким Вудбайн (Herman Schultz / Shocker #2)
-Описание: После исторической встречи с командой Мстителей Питер Паркер возвращается домой, стараясь зажить обычной жизнью под опекой своей тёти Мэй. Но теперь за Питером приглядывает ещё кое-что... Тони Старк видел Человека-Паука в деле и должен стать его наставником. Когда новый злодей Стервятник угрожает уничтожить всё, что дорого Питеру, приходит время доказать всем, что такое настоящий супергерой.--Качество: TS-AVC
Контейнер: MKV
Видео кодек: MPEG-4 AVC
Аудио кодек: AC3
Видео: AVC, 1040x432 (2.40:1), 2130 kbps, 30 fps, 0,158 bpp
Аудио: Русский / AC3 / 2.0 / 48 kHz / 384 kbps / 16 bit

скриншоты

Media Info

General
Unique ID : 239929513462248558674104959723486514467 (0xB480BE52DD74A9A1ACE2445CD82B0D23)
Complete name : E:\Spider-Man.Homecoming.TS-AVC.and77200.mkv
Format : Matroska
Format version : Version 4 / Version 2
File size : 2.16 GiB
Duration : 2h 2mn
Overall bit rate : 2 517 Kbps
Encoded date : UTC 2017-07-26 14:30:39
Writing application : mkvmerge v9.8.0 ('Kuglblids') 64bit
Writing library : libebml v1.3.4 + libmatroska v1.4.5
Video
ID : 1
Format : AVC
Format/Info : Advanced Video Codec
Format profile : High@L4.1
Format settings, CABAC : No
Format settings, ReFrames : 5 frames
Codec ID : V_MPEG4/ISO/AVC
Duration : 2h 2mn
Bit rate : 2 130 Kbps
Width : 1 040 pixels
Height : 432 pixels
Display aspect ratio : 2.40:1
Frame rate : 30.000 fps
Color space : YUV
Chroma subsampling : 4:2:0
Bit depth : 8 bits
Scan type : Progressive
Bits/(Pixel*Frame) : 0.158
Stream size : 1.79 GiB (83%)
Writing library : x264 core 148 r2721M 72d53ab
Encoding settings : cabac=0 / ref=5 / deblock=0:-6:-6 / analyse=0x3:0 / me=umh / subme=9 / psy=1 / psy_rd=1.00:0.00 / mixed_ref=0 / me_range=16 / chroma_me=1 / trellis=0 / 8x8dct=1 / cqm=0 / deadzone=21,11 / fast_pskip=1 / chroma_qp_offset=-2 / threads=4 / lookahead_threads=1 / sliced_threads=0 / nr=0 / decimate=1 / interlaced=0 / bluray_compat=0 / constrained_intra=0 / bframes=5 / b_pyramid=2 / b_adapt=0 / b_bias=0 / direct=1 / weightb=0 / open_gop=0 / weightp=0 / keyint=300 / keyint_min=30 / scenecut=0 / intra_refresh=0 / rc=abr / mbtree=0 / bitrate=2130 / ratetol=1.0 / qcomp=0.60 / qpmin=0 / qpmax=69 / qpstep=4 / ip_ratio=1.40 / pb_ratio=1.30 / aq=0
Language : English
Default : Yes
Forced : No
DURATION : 02:02:52.433000000
NUMBER_OF_FRAMES : 221173
NUMBER_OF_BYTES : 1964020173
_STATISTICS_WRITING_APP : mkvmerge v9.8.0 ('Kuglblids') 64bit
_STATISTICS_WRITING_DATE_UTC : 2017-07-26 14:30:39
_STATISTICS_TAGS : BPS DURATION NUMBER_OF_FRAMES NUMBER_OF_BYTES
Color primaries : BT.709-5, BT.1361, IEC 61966-2-4, SMPTE RP177
Transfer characteristics : BT.709-5, BT.1361
Matrix coefficients : BT.709-5, BT.1361, IEC 61966-2-4 709, SMPTE RP177
Audio
ID : 2
Format : AC-3
Format/Info : Audio Coding 3
Mode extension : CM (complete main)
Codec ID : A_AC3
Duration : 2h 2mn
Bit rate mode : Constant
Bit rate : 384 Kbps
Channel(s) : 2 channels
Channel positions : Front: L R
Sampling rate : 48.0 KHz
Bit depth : 16 bits
Compression mode : Lossy
Stream size : 337 MiB (15%)
Language : Russian
Default : Yes
Forced : No
DURATION : 02:02:52.384000000
NUMBER_OF_FRAMES : 230387
NUMBER_OF_BYTES : 353874432
_STATISTICS_WRITING_APP : mkvmerge v9.8.0 ('Kuglblids') 64bit
_STATISTICS_WRITING_DATE_UTC : 2017-07-26 14:30:39
_STATISTICS_TAGS : BPS DURATION NUMBER_OF_FRAMES NUMBER_OF_BYTES
0 человек читают эту тему: 0 пользователей, 0 скрытых пользователей, 0 гостей

Показать сообщения:    

Текущее время: 23-Авг 09:17

Часовой пояс: UTC - 1


Вы не можете начинать темы
Вы не можете отвечать на сообщения
Вы не можете редактировать свои сообщения
Вы не можете удалять свои сообщения
Вы не можете голосовать в опросах
Вы не можете прикреплять файлы к сообщениям
Вы не можете скачивать файлы

!ВНИМАНИЕ!
Сайт не предоставляет электронные версии произведений, а занимается лишь коллекционированием и каталогизацией ссылок, присылаемых и публикуемых на форуме нашими читателями. Если вы являетесь правообладателем какого-либо представленного материала и не желаете, чтобы ссылка на него находилась в нашем каталоге, свяжитесь с нами, и мы незамедлительно удалим ее. Файлы для обмена на трекере предоставлены пользователями сайта, и администрация не несет ответственности за их содержание. Просьба не заливать файлы, защищенные авторскими правами, а также файлы нелегального содержания!