Важное объявление!
У Нас Все раздачи мультитрекерные, при нуле пиров в релизах, можете смело вставать на закачку!
Статистика раздачи
Размер:     |    Зарегистрирован:     |    Скачан:     |   
Нет
 
     
 
 
Автор Сообщение

HUNTER

Стаж:
5 лет
Сообщений:
68415

Репутация: 101

[+] [-]
Вне форума [Профиль] [ЛС]

Человек-волк / The Wolf Man
Страна: США
Студия: Universal Pictures
Жанр: ужасы, драма
Год выпуска: 1941
Продолжительность: 01:09:56
Перевод: Профессиональный (многоголосый закадровый)
Cубтитры: русские, английские(full, SDH, commentary)
Оригинальная аудиодорожка: английский
Режиссер: Джордж Ваггнер / George Waggner
В ролях: Лон Чейни мл., Клод Рейнс, Уоррен Уильям, Ральф Беллами, Патрик Ноулз, Бела Лугоши, Мария Успенская, Эвелин Анкерс, Дж. М. Кэрриган, Фэй Хельм
Описание: Лэрри Тэлбот возвращается в замок своего отца в Уэльсе и встречает красавицу. В одну роковую ночь, когда Тэлбот сопровождает ее на местный бал, таинственная цыганка предсказывает Дженни ее судьбу…

Sample
Тип релиза: BDRemux 1080p
Контейнер: MKV
Видео: MPEG4 AVC Video, H264, 1920x1080, 23,976 fps, 31992 Kbps
Аудио: Russian (AC3, 2 ch, 192 kbps, 16 bits, 48.0 KHz) - MVO
Аудио 2: English (DTS-HD MA, 2 ch, 1772 kbps, 24 bits, 48.0 KHz / DTS core: 2 ch, 1509 kbps, 24 bits, 48.0 KHz) - оригинал
Аудио 3: English (AC3, 2 ch, 192 kbps, 16 bits, 48.0 KHz) - комментарии
Формат субтитров: softsub (SRT)

MediaInfo

General
Unique ID : 231285242815630771864229097957083106929 (0xADFFEAE030553481A2B940568A14CE71)
Complete name : E:\1\The Wolf Man 1941 BDRemux 1080p.mkv
Format : Matroska
Format version : Version 4 / Version 2
File size : 16.6 GiB
Duration : 1h 9mn
Overall bit rate mode : Variable
Overall bit rate : 34.0 Mbps
Movie name : The Wolf Man
Encoded date : UTC 2014-08-04 12:35:22
Writing application : mkvmerge v6.1.0 ('Old Devil') built on Mar 2 2013 14:32:37
Writing library : libebml v1.3.0 + libmatroska v1.4.0
Video
ID : 1
Format : AVC
Format/Info : Advanced Video Codec
Format profile : High@L4.1
Format settings, CABAC : Yes
Format settings, ReFrames : 4 frames
Format settings, GOP : M=3, N=12
Codec ID : V_MPEG4/ISO/AVC
Duration : 1h 9mn
Bit rate mode : Variable
Maximum bit rate : 35.0 Mbps
Width : 1 920 pixels
Height : 1 080 pixels
Display aspect ratio : 16:9
Frame rate mode : Constant
Frame rate : 23.976 fps
Color space : YUV
Chroma subsampling : 4:2:0
Bit depth : 8 bits
Scan type : Progressive
Default : Yes
Forced : No
Audio #1
ID : 2
Format : AC-3
Format/Info : Audio Coding 3
Mode extension : CM (complete main)
Format settings, Endianness : Big
Codec ID : A_AC3
Duration : 1h 9mn
Bit rate mode : Constant
Bit rate : 192 Kbps
Channel count : 2 channels
Channel positions : Front: L R
Sampling rate : 48.0 KHz
Bit depth : 16 bits
Compression mode : Lossy
Stream size : 96.0 MiB (1%)
Title : MVO
Language : Russian
Default : Yes
Forced : No
Audio #2
ID : 3
Format : DTS
Format/Info : Digital Theater Systems
Format profile : MA / Core
Mode : 16
Format settings, Endianness : Big
Codec ID : A_DTS
Duration : 1h 9mn
Bit rate mode : Variable
Bit rate : Unknown / 1 509 Kbps
Channel count : 2 channels
Channel positions : Front: L R
Sampling rate : 48.0 KHz
Bit depth : 24 bits
Compression mode : Lossless / Lossy
Language : English
Default : No
Forced : No
Audio #3
ID : 4
Format : AC-3
Format/Info : Audio Coding 3
Format profile : Dolby Digital
Mode extension : CM (complete main)
Format settings, Endianness : Big
Codec ID : A_AC3
Duration : 1h 9mn
Bit rate mode : Constant
Bit rate : 192 Kbps
Channel count : 2 channels
Channel positions : Front: L R
Sampling rate : 48.0 KHz
Bit depth : 16 bits
Compression mode : Lossy
Stream size : 96.0 MiB (1%)
Title : Commentary
Language : English
Default : No
Forced : No
Text #1
ID : 5
Format : UTF-8
Codec ID : S_TEXT/UTF8
Codec ID/Info : UTF-8 Plain Text
Language : Russian
Default : No
Forced : No
Text #2
ID : 6
Format : UTF-8
Codec ID : S_TEXT/UTF8
Codec ID/Info : UTF-8 Plain Text
Language : English
Default : No
Forced : No
Text #3
ID : 7
Format : UTF-8
Codec ID : S_TEXT/UTF8
Codec ID/Info : UTF-8 Plain Text
Title : SDH
Language : English
Default : No
Forced : No
Text #4
ID : 8
Format : UTF-8
Codec ID : S_TEXT/UTF8
Codec ID/Info : UTF-8 Plain Text
Title : Commentary
Language : English
Default : No
Forced : No
Menu
00:00:00.000 : en:Main Titles
00:01:32.050 : en:Lycanthropy
00:02:19.723 : en:Talbot Castle
00:04:57.631 : en:The Observatory
00:08:47.819 : en:A Walking Stick
00:12:22.909 : en:A Fortune Teller
00:19:31.629 : en:An Investigation
00:25:16.306 : en:A Gypsy Burial
00:28:52.189 : en:Gwen's Accusers
00:31:44.277 : en:Frank Andrews
00:35:29.252 : en:The Gypsy Woman
00:39:46.843 : en:A Werewolf in Camp
00:48:39.625 : en:Time for Church
00:54:27.514 : en:Wolf Trap
00:58:10.696 : en:A Visit at Night
01:02:27.577 : en:All Tied Up
01:05:41.855 : en:The Hunt is On
01:09:25.787 : en:End Credits

Скриншоты


_________________
Показать сообщения:    

Текущее время: Сегодня 03:17

Часовой пояс: GMT



Вы не можете начинать темы
Вы не можете отвечать на сообщения
Вы не можете редактировать свои сообщения
Вы не можете удалять свои сообщения
Вы не можете голосовать в опросах
Вы не можете прикреплять файлы к сообщениям
Вы не можете скачивать файлы