Важное объявление!
У Нас Все раздачи мультитрекерные, при нуле пиров в релизах, можете смело вставать на закачку!
 
Автор Сообщение

HUNTER

Стаж:
4 года 7 месяцев
Сообщений:
61521

Репутация: 101

[+] [-]
Вне форума [Профиль] [ЛС]

Частная жизнь Шерлока Холмса / The Private Life of Sherlock Holmes-
Год выпуска: 1970
Страна: Великобритания
Жанр: комедия, детектив
Продолжительность: 02:05:28
Перевод: Профессиональный (многоголосый закадровый) ТРК «Петербург – 5-й канал»
Перевод 2: Профессиональный (двухголосый закадровый)
Перевод 3: Профессиональный (двухголосый закадровый) НТВ+ (Ольга Плетнева и Игорь Тарадайкин)
Перевод 4: Авторский (одноголосый закадровый) Петр Карцев
Оригинальная аудиодорожка: Английская
Cубтитры: Английские-Режиссер: Билли Уайлдер / Billy Wilder
В ролях: Роберт Стивенс, Колин Блейкли, Женевьев Паж, Кристофер Ли, Тамара Туманова, Клайв Ревилл, Айрин Хэндл, Молли Морин, Стэнли Холлоуэй, Катрин Лэйси-Описание:
Скучающий, впавший в депрессию Шерлок Холмс (Стивенс) не ведет никаких расследований и утешается кокаином. В один прекрасный вечер на пороге дома 221Б по Бэйкер-стрит появляется прекрасная бельгийка Габриэль Валладон (Паж) и умоляет Холмса найти ее пропавшего мужа. Хотя таинственный брат Майкрофт (Ли) предупреждал Холмса не браться за это дело, Шерлок не отступает, и след приводит его в Шотландию, на берега знаменитого озера ***мат***-Несс, где Холмс и Ватсон лицом к лицу сталкиваются с легендарным чудищем...-За "5 канал" спасибо StudioRAK, за дорожку №2 спасибо Spirya, за НТВ— IVH, за Карцева — Kruil.
| IMDb | Сэмпл-Качество: BDRemux 1080p (The.Private.Life.of.Sherlock.Holmes.1970.COMPLETE.BLURAY-CiNEMATiC)
Контейнер: MKV
Видео: AVC, 1920x1080 (2.34:1), 23,976 fps, 16001 kbps
Аудио 1: Русский AС3, 2.0, 48 kHz, 192 kbps — 5-й канал
Аудио 2: Русский AС3, 2.0, 48 kHz, 192 kbps — ?
Аудио 3: Русский AС3, 2.0, 48 kHz, 192 kbps — НТВ+
Аудио 4: Русский AС3, 2.0, 48 kHz, 192 kbps — Карцев
Аудио 5: Английский DTS-HD MA 2.0, 48 kHz, 1624 kbps, 16-bit (DTS Core: 2.0, 48 kHz, 1509 kbps, 16-bit)

Скриншоты


MI

General
Unique ID : 198952002920702124878960946327653312742 (0x95ACC311E9B6227C928CFD7DA875E8E6)
Complete name : The.Private.Life.of.Sherlock.Holmes.1970.1080p.Remux.mkv
Format : Matroska
Format version : Version 2
File size : 16.1 GiB
Duration : 2h 5mn
Overall bit rate mode : Variable
Overall bit rate : 18.4 Mbps
Movie name : The Private Life of Sherlock Holmes (1970) – RuTracker
Encoded date : UTC 2014-08-02 05:17:02
Writing application : mkvmerge v7.0.0 ('Where We Going') 64bit built on Jun 9 2014 15:16:27
Writing library : libebml v1.3.0 + libmatroska v1.4.1
Attachment : Yes
Video
ID : 1
Format : AVC
Format/Info : Advanced Video Codec
Format profile : High@L4.1
Format settings, CABAC : Yes
Format settings, ReFrames : 4 frames
Format settings, GOP : M=3, N=24
Codec ID : V_MPEG4/ISO/AVC
Duration : 2h 5mn
Bit rate mode : Variable
Maximum bit rate : 35.0 Mbps
Width : 1 920 pixels
Height : 1 080 pixels
Display aspect ratio : 16:9
Frame rate mode : Constant
Frame rate : 23.976 fps
Standard : NTSC
Color space : YUV
Chroma subsampling : 4:2:0
Bit depth : 8 bits
Scan type : Progressive
Title : The.Private.Life.of.Sherlock.Holmes.1970.COMPLETE.BLURAY-CiNEMATiC
Language : English
Default : Yes
Forced : No
Color primaries : BT.709
Transfer characteristics : BT.709
Matrix coefficients : BT.709
Audio #1
ID : 2
Format : AC-3
Format/Info : Audio Coding 3
Mode extension : CM (complete main)
Format settings, Endianness : Big
Codec ID : A_AC3
Duration : 2h 5mn
Bit rate mode : Constant
Bit rate : 192 Kbps
Channel(s) : 2 channels
Channel positions : Front: L R
Sampling rate : 48.0 KHz
Bit depth : 16 bits
Compression mode : Lossy
Stream size : 172 MiB (1%)
Title : MVO – Петербург 5-й канал
Language : Russian
Default : Yes
Forced : No
Audio #2
ID : 3
Format : AC-3
Format/Info : Audio Coding 3
Mode extension : CM (complete main)
Format settings, Endianness : Big
Codec ID : A_AC3
Duration : 2h 5mn
Bit rate mode : Constant
Bit rate : 192 Kbps
Channel(s) : 2 channels
Channel positions : Front: L R
Sampling rate : 48.0 KHz
Bit depth : 16 bits
Compression mode : Lossy
Stream size : 172 MiB (1%)
Title : DVO
Language : Russian
Default : No
Forced : No
Audio #3
ID : 4
Format : AC-3
Format/Info : Audio Coding 3
Mode extension : CM (complete main)
Format settings, Endianness : Big
Codec ID : A_AC3
Duration : 2h 5mn
Bit rate mode : Constant
Bit rate : 192 Kbps
Channel(s) : 2 channels
Channel positions : Front: L R
Sampling rate : 48.0 KHz
Bit depth : 16 bits
Compression mode : Lossy
Stream size : 172 MiB (1%)
Title : DVO – НТВ
Language : Russian
Default : No
Forced : No
Audio #4
ID : 5
Format : AC-3
Format/Info : Audio Coding 3
Mode extension : CM (complete main)
Format settings, Endianness : Big
Codec ID : A_AC3
Duration : 2h 5mn
Bit rate mode : Constant
Bit rate : 192 Kbps
Channel(s) : 2 channels
Channel positions : Front: L R
Sampling rate : 48.0 KHz
Bit depth : 16 bits
Compression mode : Lossy
Stream size : 172 MiB (1%)
Title : AVO – П.Карцев
Language : Russian
Default : No
Forced : No
Audio #5
ID : 6
Format : DTS
Format/Info : Digital Theater Systems
Format profile : MA / Core
Mode : 16
Format settings, Endianness : Big
Codec ID : A_DTS
Duration : 2h 5mn
Bit rate mode : Variable
Bit rate : Unknown / 1 509 Kbps
Channel(s) : 2 channels
Channel positions : Front: L R
Sampling rate : 48.0 KHz
Bit depth : 16 bits
Compression mode : Lossless / Lossy
Title : Original
Language : English
Default : No
Forced : No
Text
ID : 7
Format : UTF-8
Codec ID : S_TEXT/UTF8
Codec ID/Info : UTF-8 Plain Text
Language : English
Default : No
Forced : No
Menu
00:00:00.000 : en:Chapter 1
00:17:06.608 : en:Chapter 2
00:33:31.092 : en:Chapter 3
00:52:07.415 : en:Chapter 4
01:08:26.018 : en:Chapter 5
01:24:21.097 : en:Chapter 6
01:39:13.197 : en:Chapter 7
01:51:12.749 : en:Chapter 8

_________________
Показать сообщения:    

Текущее время: Сегодня 18:34

Часовой пояс: GMT



Вы не можете начинать темы
Вы не можете отвечать на сообщения
Вы не можете редактировать свои сообщения
Вы не можете удалять свои сообщения
Вы не можете голосовать в опросах
Вы не можете прикреплять файлы к сообщениям
Вы не можете скачивать файлы
Наши партнеры: интернет магазин Ивановского трикотажа textilla.ru