Важное объявление!
У Нас Все раздачи мультитрекерные, при нуле пиров в релизах, можете смело вставать на закачку!
 
Автор Сообщение

HUNTER

Стаж:
4 года 8 месяцев
Сообщений:
62050

Репутация: 101

[+] [-]
Вне форума [Профиль] [ЛС]

Часовые памяти. Калининградская область
Год выпуска: 2013
Страна: Россия
Жанр: Документальный
Продолжительность: 00:52:08
Перевод: Не требуется
Режиссер: Сергей Нейлау
Описание: Фильм «Часовые памяти. Калининградская область» расскажет о самых ожесточенных сражениях Восточно-Прусской операции - за немецкий город Кенигсберг (будущий Калининград) и морской порт Пилау (будущий Балтийск), где найдет новую базу одноименный флот нашей страны. Именно Калининград ветеранские организации выбрали, чтобы установить здесь свой мемориал – белокаменную часовню. В память о всех погибших в той страшной войне. Этот памятник пятый по счету. Часовни из белого мрамора – «часовые памяти», как их называют сами ветераны, - уже стоят под Псковом, в Ельне, на Невском пятачке и в Волгограде.
Качество: IPTVRip
Формат: AVI
Видео: XviD, 704x400, (1.76:1), 1456 kbps avg, 25 fps, 0.21 bit/pixel
Аудио: 48 kHz, MPEG Layer 3, 2 ch, ~128.00 kbps avg
Подобные раздачи

MediaInfo

General
Complete name : C:\Users\Acer\Desktop\Часовые памяти. Калининградская область.avi
Format : AVI
Format/Info : Audio Video Interleave
File size : 594 MiB
Duration : 52mn 7s
Overall bit rate : 1 594 Kbps
Writing application : VirtualDubMod 1.5.10.2 (build 2540/release)
Writing library : VirtualDubMod build 2540/release
Video
ID : 0
Format : MPEG-4 Visual
Format profile : Advanced Simple@L5
Format settings, BVOP : 2
Format settings, QPel : No
Format settings, GMC : No warppoints
Format settings, Matrix : Default (MPEG)
Codec ID : XVID
Codec ID/Hint : XviD
Duration : 52mn 7s
Bit rate : 1 456 Kbps
Width : 704 pixels
Height : 400 pixels
Display aspect ratio : 16:9
Frame rate : 25.000 fps
Color space : YUV
Chroma subsampling : 4:2:0
Bit depth : 8 bits
Scan type : Progressive
Compression mode : Lossy
Bits/(Pixel*Frame) : 0.207
Stream size : 543 MiB (91%)
Writing library : XviD 1.2.1 (UTC 2008-12-04)
Audio
ID : 1
Format : MPEG Audio
Format version : Version 1
Format profile : Layer 3
Codec ID : 55
Codec ID/Hint : MP3
Duration : 52mn 7s
Bit rate mode : Constant
Bit rate : 128 Kbps
Channel(s) : 2 channels
Sampling rate : 48.0 KHz
Compression mode : Lossy
Stream size : 47.7 MiB (8%)
Alignment : Aligned on interleaves
Interleave, duration : 40 ms (1.00 video frame)
Interleave, preload duration : 504 ms

Скриншоты


_________________
Показать сообщения:    

Текущее время: Сегодня 12:08

Часовой пояс: GMT



Вы не можете начинать темы
Вы не можете отвечать на сообщения
Вы не можете редактировать свои сообщения
Вы не можете удалять свои сообщения
Вы не можете голосовать в опросах
Вы не можете прикреплять файлы к сообщениям
Вы не можете скачивать файлы
Наши партнеры: интернет магазин Ивановского трикотажа textilla.ru