Важное объявление!
У Нас Все раздачи мультитрекерные, при нуле пиров в релизах, можете смело вставать на закачку!
 
Автор Сообщение

HUNTER

Стаж:
4 года 11 месяцев
Сообщений:
66026

Репутация: 101

[+] [-]
Вне форума [Профиль] [ЛС]

Чарльз Чаплин: Короткометражные комедии студии «Mutual» / Chaplin's Mutual Comedies-
Год выпуска: 1916-1917
Страна: США
Жанр: комедия
Продолжительность: 05:19:02 (~26 минут x 12)
Перевод: Субтитры
Оригинальная аудиодорожка: музыкальное сопровождение
Cубтитры: Русские (7ime 7raveller, Darleg), английские интертитры-Режиссер: Чарльз Чаплин / Charles Chaplin-Описание:
В 1916 году когда Чаплин попросил у студии «Essanay» 150 тыс. долларов наличными за подписание нового контракта, «Essanay» на это не пошла. Тогда Чаплин отправился к своему брату Сиднею, который рассматривал все поступившие предложения о работе от других кинокомпаний. Самые выгодные условия предложила «Mutual».
И вот последовало торжественное подписание контракта. Чарли Чаплина сфотографировали в момент получения чека. Вечером он стоял в толпе на Таймс-сквер, когда на световом табло здания, где помещалась редакция газеты «Таймс», побежали буквы: «Чаплин подписывает контракт с «Mutual» на 670 000 долларов в год».
«В моей жизни за это время произошли такие перемены, что я уже потерял способность волноваться», — заметил артист.
Первый же фильм — «Контролер универмага», снятый Чаплином в «Mutual», (здесь Чарли — служащий универсального магазина) имел большой успех. Вскоре, он втянулся в работу и каждый месяц выпускал по одной комедии в двух частях: «Пожарный", «Скиталец», «В час ночи», «Граф», «Лавка ростовщика», «За экраном»…
«Пожалуй, работа в «Mutual» была самым счастливым периодом моей творческой жизни, — писал актер. — Мне было двадцать семь лет, меня не обременяли никакие заботы, а будущее сулило быть сказочным. Скоро я должен был стать миллионером — все это чуть-чуть смахивало на бред. Деньги лились рекой... Бесспорно, успех меняет в жизни человека все. Когда меня с кем-нибудь знакомили, новый собеседник неизменно смотрел на меня с огромным интересом. Хотя я был всего только выскочка, мое мнение приобрело большой вес».-Сэмплы-Качество: BDRemux 1080p (Chaplin's Mutual Comedies 1916-1917 1080p GBR Blu-ray AVC LPCM 2.0-ESiR)
Контейнер: MKV
Видео: AVC, 1920x1080 (1.33:1), 23.976 fps, ~29000–32000 kbps
Аудио 1: DTS-HD MA 2.0, 48 kHz, ~1000 kbps, 16-bit (DTS Core: 2.0, 48 kHz, 768 kbps, 16-bit) — Music by Carl Davis
Аудио 2: FLAC 2.0, 48 kHz, ~550 kbps — Music
Аудио 3: FLAC 2.0, 48 kHz, ~400 kbps — Improvisational Piano
Аудио 4: Английский AС3, 2.0, 48 kHz, 192 kbps — Commentary
Формат субтитров: softsub (SRT)

01. The Floorwalker / Контролёр универмага

Год выпуска: 1916
Продолжительность: 00:29:25-В ролях: Чарльз Чаплин, Эрик Кэмпбелл, Эдна Пёвайнс, Ллойд Бэйкон, Альберт Остин, Шарлотта Мино, Фрэнк Дж. Коулмэн, Джеймс Т. Келли, Джон Рэнд, Уэсли Рагглз-Описание:
Бродяга Чарли приходит в богатый универмаг, где в это время разворачиваются интересные события — контролер универмага оглушил директора и украл кругленькую сумму денег.
Контролер, кстати, как две капли воды похож на Чарли… Кроме этого в магазине присутствует целая толпа мелких воришек, красавица секретарша, ненавистный полотер и главный враг Чарли — эскалатор!-Скриншоты

MI

General
Unique ID : 173276798251303532983906166181093962665 (0x825BE5BEC1D4A6ABB3CE9226200FF3A9)
Complete name : 01.The.Floorwalker.1916.1080p.BDRemux.mkv
Format : Matroska
Format version : Version 2
File size : 6.40 GiB
Duration : 29mn 25s
Overall bit rate mode : Variable
Overall bit rate : 31.2 Mbps
Movie name : The Floorwalker / Контролёр универмага (1916) – RuTracker
Encoded date : UTC 2015-12-21 20:04:01
Writing application : mkvmerge v8.3.0 ('Over the Horizon') 64bit
Writing library : libebml v1.3.1 + libmatroska v1.4.2
Attachements : cover.jpg
Video
ID : 1
Format : AVC
Format/Info : Advanced Video Codec
Format profile : High@L4.1
Format settings, CABAC : Yes
Format settings, ReFrames : 3 frames
Codec ID : V_MPEG4/ISO/AVC
Duration : 29mn 25s
Bit rate mode : Variable
Nominal bit rate : 30.0 Mbps
Maximum bit rate : 38.0 Mbps
Width : 1 920 pixels
Height : 1 080 pixels
Display aspect ratio : 16:9
Frame rate mode : Constant
Frame rate : 23.976 fps
Color space : YUV
Chroma subsampling : 4:2:0
Bit depth : 8 bits
Scan type : Progressive
Bits/(Pixel*Frame) : 0.603
Writing library : x264 core 128 r2216 198a7ea
Encoding settings : cabac=1 / ref=4 / deblock=0:-1:-1 / analyse=0x3:0x133 / me=umh / subme=10 / psy=1 / psy_rd=1.00:0.15 / mixed_ref=1 / me_range=24 / chroma_me=1 / trellis=2 / 8x8dct=1 / cqm=0 / deadzone=21,11 / fast_pskip=1 / chroma_qp_offset=-3 / threads=12 / lookahead_threads=2 / sliced_threads=0 / slices=4 / nr=0 / decimate=1 / interlaced=0 / bluray_compat=1 / constrained_intra=0 / bframes=3 / b_pyramid=1 / b_adapt=2 / b_bias=0 / direct=3 / weightb=1 / open_gop=1 / weightp=1 / keyint=24 / keyint_min=1 / scenecut=40 / intra_refresh=0 / rc_lookahead=24 / rc=2pass / mbtree=0 / bitrate=30000 / ratetol=1.0 / qcomp=0.00 / qpmin=0 / qpmax=69 / qpstep=4 / cplxblur=20.0 / qblur=0.5 / vbv_maxrate=38000 / vbv_bufsize=28500 / nal_hrd=vbr / ip_ratio=1.40 / pb_ratio=1.30 / aq=1:1.00
Language : English
Default : Yes
Forced : No
Color range : Limited
Color primaries : BT.709
Transfer characteristics : BT.709
Matrix coefficients : BT.709
Audio #1
ID : 2
Format : DTS
Format/Info : Digital Theater Systems
Format profile : MA / Core
Mode : 16
Format settings, Endianness : Big
Codec ID : A_DTS
Duration : 29mn 25s
Bit rate mode : Variable
Bit rate : Unknown / 768 Kbps
Channel(s) : 2 channels
Channel positions : Front: L R
Sampling rate : 48.0 KHz
Bit depth : 16 bits
Compression mode : Lossless / Lossy
Title : Music by Carl Davis
Default : Yes
Forced : No
Audio #2
ID : 3
Format : FLAC
Format/Info : Free Lossless Audio Codec
Codec ID : A_FLAC
Duration : 29mn 25s
Bit rate mode : Variable
Channel(s) : 2 channels
Sampling rate : 48.0 KHz
Bit depth : 16 bits
Title : Music by Gabriel Thibaudeau
Writing library : libFLAC 1.3.1 (UTC 2014-11-25)
Default : No
Forced : No
Audio #3
ID : 4
Format : FLAC
Format/Info : Free Lossless Audio Codec
Codec ID : A_FLAC
Duration : 29mn 25s
Bit rate mode : Variable
Channel(s) : 2 channels
Sampling rate : 48.0 KHz
Bit depth : 16 bits
Title : Improvisational Piano by Antonio Coppola
Writing library : libFLAC 1.3.1 (UTC 2014-11-25)
Default : No
Forced : No
Audio #4
ID : 5
Format : AC-3
Format/Info : Audio Coding 3
Mode extension : CM (complete main)
Format settings, Endianness : Big
Codec ID : A_AC3
Duration : 29mn 25s
Bit rate mode : Constant
Bit rate : 192 Kbps
Channel(s) : 2 channels
Channel positions : Front: L R
Sampling rate : 48.0 KHz
Compression mode : Lossy
Stream size : 40.4 MiB (1%)
Title : Commentary by Frank Scheide
Language : English
Default : No
Forced : No
Text
ID : 6
Format : UTF-8
Codec ID : S_TEXT/UTF8
Codec ID/Info : UTF-8 Plain Text
Language : Russian
Default : Yes
Forced : No
Menu
00:00:00.000 : en:Chapter 1
00:00:56.723 : en:Chapter 2
00:05:38.505 : en:Chapter 3
00:14:40.379 : en:Chapter 4
00:21:29.622 : en:Chapter 5

02. The Fireman / Пожарный

Год выпуска: 1916
Продолжительность: 00:26:26-В ролях: Чарльз Чаплин, Эдна Пёвайнс, Ллойд Бэйкон, Эрик Кэмпбелл, Лео Уайт, Альберт Остин, Джон Рэнд, Джеймс Т. Келли, Фрэнк Дж. Коулмэн-Описание:
Чарли играет пожарного, который всегда все делает не так. Однажды один человек, который поджег свой дом с целью получить страховку, договорился с шефом пожарных, чтобы тот не приезжал на место пожара, несмотря на то, что на верхнем этаже дома была его дочь. Но когда огонь перекидывается на соседний дом, то владелец этого дома вызывает команду пожарных…-Скриншоты

MI

General
Unique ID : 246577588900771683010709253612046525610 (0xB9811DBFCCB4F56CB9930F15037A24AA)
Complete name : 02.The.Fireman.1916.1080.BDRemux.mkv
Format : Matroska
Format version : Version 2
File size : 5.74 GiB
Duration : 26mn 26s
Overall bit rate mode : Variable
Overall bit rate : 31.1 Mbps
Movie name : The Fireman / Пожарный (1916) – RuTracker
Encoded date : UTC 2015-12-21 20:16:36
Writing application : mkvmerge v8.3.0 ('Over the Horizon') 64bit
Writing library : libebml v1.3.1 + libmatroska v1.4.2
Attachements : cover.jpg
Video
ID : 1
Format : AVC
Format/Info : Advanced Video Codec
Format profile : High@L4.1
Format settings, CABAC : Yes
Format settings, ReFrames : 3 frames
Codec ID : V_MPEG4/ISO/AVC
Duration : 26mn 26s
Bit rate mode : Variable
Nominal bit rate : 30.0 Mbps
Maximum bit rate : 38.0 Mbps
Width : 1 920 pixels
Height : 1 080 pixels
Display aspect ratio : 16:9
Frame rate mode : Constant
Frame rate : 23.976 fps
Color space : YUV
Chroma subsampling : 4:2:0
Bit depth : 8 bits
Scan type : Progressive
Bits/(Pixel*Frame) : 0.603
Writing library : x264 core 128 r2216 198a7ea
Encoding settings : cabac=1 / ref=4 / deblock=0:-1:-1 / analyse=0x3:0x133 / me=umh / subme=10 / psy=1 / psy_rd=1.00:0.15 / mixed_ref=1 / me_range=24 / chroma_me=1 / trellis=2 / 8x8dct=1 / cqm=0 / deadzone=21,11 / fast_pskip=1 / chroma_qp_offset=-3 / threads=12 / lookahead_threads=2 / sliced_threads=0 / slices=4 / nr=0 / decimate=1 / interlaced=0 / bluray_compat=1 / constrained_intra=0 / bframes=3 / b_pyramid=1 / b_adapt=2 / b_bias=0 / direct=3 / weightb=1 / open_gop=1 / weightp=1 / keyint=24 / keyint_min=1 / scenecut=40 / intra_refresh=0 / rc_lookahead=24 / rc=2pass / mbtree=0 / bitrate=30000 / ratetol=1.0 / qcomp=0.00 / qpmin=0 / qpmax=69 / qpstep=4 / cplxblur=20.0 / qblur=0.5 / vbv_maxrate=38000 / vbv_bufsize=28500 / nal_hrd=vbr / ip_ratio=1.40 / pb_ratio=1.30 / aq=1:1.00
Language : English
Default : Yes
Forced : No
Color range : Limited
Color primaries : BT.709
Transfer characteristics : BT.709
Matrix coefficients : BT.709
Audio #1
ID : 2
Format : DTS
Format/Info : Digital Theater Systems
Format profile : MA / Core
Mode : 16
Format settings, Endianness : Big
Codec ID : A_DTS
Duration : 26mn 26s
Bit rate mode : Variable
Bit rate : Unknown / 768 Kbps
Channel(s) : 2 channels
Channel positions : Front: L R
Sampling rate : 48.0 KHz
Bit depth : 16 bits
Compression mode : Lossless / Lossy
Title : Music by Carl Davis
Default : Yes
Forced : No
Audio #2
ID : 3
Format : FLAC
Format/Info : Free Lossless Audio Codec
Codec ID : A_FLAC
Duration : 26mn 26s
Bit rate mode : Variable
Channel(s) : 2 channels
Sampling rate : 48.0 KHz
Bit depth : 16 bits
Title : Original Fotoplayer Music and Sound Effects Played and Adapted by Robert Israel
Writing library : libFLAC 1.3.1 (UTC 2014-11-25)
Default : No
Forced : No
Audio #3
ID : 4
Format : FLAC
Format/Info : Free Lossless Audio Codec
Codec ID : A_FLAC
Duration : 26mn 26s
Bit rate mode : Variable
Channel(s) : 2 channels
Sampling rate : 48.0 KHz
Bit depth : 16 bits
Title : Improvisational Piano by Neil Brand
Writing library : libFLAC 1.3.1 (UTC 2014-11-25)
Default : No
Forced : No
Audio #4
ID : 5
Format : AC-3
Format/Info : Audio Coding 3
Mode extension : CM (complete main)
Format settings, Endianness : Big
Codec ID : A_AC3
Duration : 26mn 26s
Bit rate mode : Constant
Bit rate : 192 Kbps
Channel(s) : 2 channels
Channel positions : Front: L R
Sampling rate : 48.0 KHz
Compression mode : Lossy
Stream size : 36.3 MiB (1%)
Title : Commentary by Glenn Mitchell
Language : English
Default : No
Forced : No
Text
ID : 6
Format : UTF-8
Codec ID : S_TEXT/UTF8
Codec ID/Info : UTF-8 Plain Text
Language : Russian
Default : Yes
Forced : No
Menu
00:00:00.000 : en:Chapter 1
00:01:00.602 : en:Chapter 2
00:07:03.048 : en:Chapter 3
00:12:45.682 : en:Chapter 4
00:20:06.080 : en:Chapter 5

03. The Vagabond / Скиталец

Год выпуска: 1916
Продолжительность: 00:26:49-В ролях: Чарльз Чаплин, Эдна Пёвайнс, Эрик Кэмпбелл, Лео Уайт, Ллойд Бэйкон, Шарлотта Мино, Альберт Остин, Джон Рэнд, Джеймс Т. Келли, Фрэнк Дж. Коулмэн-Описание:
В этой картине Чаплин исполняет роль бродячего музыканта. Странствуя по городам, Чарли спасает от злодеев-цыган маленькую белокурую поденщицу, увозит ее и, разумеется, влюбляется. Теперь они странствуют вдвоем, но их идиллия длится недолго — приключения только начинаются…-Скриншоты

MI

General
Unique ID : 193113019153432321262852820404217182705 (0x914836F196E4B69F9653ECE03189F9F1)
Complete name : 03.The.Vagabond.1916.1080p.BDRemux.mkv
Format : Matroska
Format version : Version 2
File size : 5.84 GiB
Duration : 26mn 49s
Overall bit rate mode : Variable
Overall bit rate : 31.2 Mbps
Movie name : The Vagabond / Скиталец (1916) – RuTracker
Encoded date : UTC 2015-12-22 17:56:14
Writing application : mkvmerge v8.3.0 ('Over the Horizon') 64bit
Writing library : libebml v1.3.1 + libmatroska v1.4.2
Attachements : cover.jpg
Video
ID : 1
Format : AVC
Format/Info : Advanced Video Codec
Format profile : High@L4.1
Format settings, CABAC : Yes
Format settings, ReFrames : 3 frames
Codec ID : V_MPEG4/ISO/AVC
Duration : 26mn 49s
Bit rate mode : Variable
Nominal bit rate : 30.0 Mbps
Maximum bit rate : 38.0 Mbps
Width : 1 920 pixels
Height : 1 080 pixels
Display aspect ratio : 16:9
Frame rate mode : Constant
Frame rate : 23.976 fps
Color space : YUV
Chroma subsampling : 4:2:0
Bit depth : 8 bits
Scan type : Progressive
Bits/(Pixel*Frame) : 0.603
Writing library : x264 core 128 r2216 198a7ea
Encoding settings : cabac=1 / ref=4 / deblock=0:-1:-1 / analyse=0x3:0x133 / me=umh / subme=10 / psy=1 / psy_rd=1.00:0.15 / mixed_ref=1 / me_range=24 / chroma_me=1 / trellis=2 / 8x8dct=1 / cqm=0 / deadzone=21,11 / fast_pskip=1 / chroma_qp_offset=-3 / threads=12 / lookahead_threads=2 / sliced_threads=0 / slices=4 / nr=0 / decimate=1 / interlaced=0 / bluray_compat=1 / constrained_intra=0 / bframes=3 / b_pyramid=1 / b_adapt=2 / b_bias=0 / direct=3 / weightb=1 / open_gop=1 / weightp=1 / keyint=24 / keyint_min=1 / scenecut=40 / intra_refresh=0 / rc_lookahead=24 / rc=2pass / mbtree=0 / bitrate=30000 / ratetol=1.0 / qcomp=0.00 / qpmin=0 / qpmax=69 / qpstep=4 / cplxblur=20.0 / qblur=0.5 / vbv_maxrate=38000 / vbv_bufsize=28500 / nal_hrd=vbr / ip_ratio=1.40 / pb_ratio=1.30 / aq=1:1.00
Language : English
Default : Yes
Forced : No
Color range : Limited
Color primaries : BT.709
Transfer characteristics : BT.709
Matrix coefficients : BT.709
Audio #1
ID : 2
Format : DTS
Format/Info : Digital Theater Systems
Format profile : MA / Core
Mode : 16
Format settings, Endianness : Big
Codec ID : A_DTS
Duration : 26mn 49s
Bit rate mode : Variable
Bit rate : Unknown / 768 Kbps
Channel(s) : 2 channels
Channel positions : Front: L R
Sampling rate : 48.0 KHz
Bit depth : 16 bits
Compression mode : Lossless / Lossy
Title : Music by Carl Davis
Default : Yes
Forced : No
Audio #2
ID : 3
Format : FLAC
Format/Info : Free Lossless Audio Codec
Codec ID : A_FLAC
Duration : 26mn 49s
Bit rate mode : Variable
Channel(s) : 2 channels
Sampling rate : 48.0 KHz
Bit depth : 16 bits
Title : Music by the Mont Alto Motion Picture Orchestra
Writing library : libFLAC 1.3.1 (UTC 2014-11-25)
Default : No
Forced : No
Audio #3
ID : 4
Format : FLAC
Format/Info : Free Lossless Audio Codec
Codec ID : A_FLAC
Duration : 26mn 49s
Bit rate mode : Variable
Channel(s) : 2 channels
Sampling rate : 48.0 KHz
Bit depth : 16 bits
Title : Improvisational Piano by Antonio Coppola
Writing library : libFLAC 1.3.1 (UTC 2014-11-25)
Default : No
Forced : No
Audio #4
ID : 5
Format : AC-3
Format/Info : Audio Coding 3
Mode extension : CM (complete main)
Format settings, Endianness : Big
Codec ID : A_AC3
Duration : 26mn 49s
Bit rate mode : Constant
Bit rate : 192 Kbps
Channel(s) : 2 channels
Channel positions : Front: L R
Sampling rate : 48.0 KHz
Compression mode : Lossy
Stream size : 36.8 MiB (1%)
Title : Commentary by Glenn Mitchell
Language : English
Default : No
Forced : No
Text
ID : 6
Format : UTF-8
Codec ID : S_TEXT/UTF8
Codec ID/Info : UTF-8 Plain Text
Language : Russian
Default : Yes
Forced : No
Menu
00:00:00.000 : en:Chapter 1
00:00:51.301 : en:Chapter 2
00:06:08.159 : en:Chapter 3
00:13:07.036 : en:Chapter 4
00:21:44.428 : en:Chapter 5

04. One A.M. / В час ночи

Год выпуска: 1916
Продолжительность: 00:27:26-В ролях: Чарльз Чаплин, Альберт Остин-Описание:
Герой — богатый бездельник, который возвращается домой в сильном подпитии и долго и безуспешно пытается добраться из прихожей первого этажа своего дома в спальню, находящуюся на втором этаже. Любой встреченный им предмет мебели (вращающийся столик, коврик, чучела медведя и рыси, шкура тигра, маятник часов и другие) воспринимается им как препятствие и преодолевается в несколько приёмов. При этом герой прилагает огромные усилия для того, чтобы не потерять «аристократической» манеры поведения.-Скриншоты

MI

General
Unique ID : 242373475588950218548969090255391391145 (0xB6576EF5ACB22451BEB67394E8357DA9)
Complete name : 04.One.A.M.1916.1080p.BDRemux.mkv
Format : Matroska
Format version : Version 2
File size : 5.87 GiB
Duration : 27mn 26s
Overall bit rate mode : Variable
Overall bit rate : 30.7 Mbps
Movie name : One A.M. / В час ночи (1916) – RuTracker
Encoded date : UTC 2015-12-21 20:24:27
Writing application : mkvmerge v8.3.0 ('Over the Horizon') 64bit
Writing library : libebml v1.3.1 + libmatroska v1.4.2
Attachements : cover.jpg
Video
ID : 1
Format : AVC
Format/Info : Advanced Video Codec
Format profile : High@L4.1
Format settings, CABAC : Yes
Format settings, ReFrames : 3 frames
Codec ID : V_MPEG4/ISO/AVC
Duration : 27mn 26s
Bit rate mode : Variable
Nominal bit rate : 30.0 Mbps
Maximum bit rate : 38.0 Mbps
Width : 1 920 pixels
Height : 1 080 pixels
Display aspect ratio : 16:9
Frame rate mode : Constant
Frame rate : 23.976 fps
Color space : YUV
Chroma subsampling : 4:2:0
Bit depth : 8 bits
Scan type : Progressive
Bits/(Pixel*Frame) : 0.603
Writing library : x264 core 128 r2216 198a7ea
Encoding settings : cabac=1 / ref=4 / deblock=0:-1:-1 / analyse=0x3:0x133 / me=umh / subme=10 / psy=1 / psy_rd=1.00:0.15 / mixed_ref=1 / me_range=24 / chroma_me=1 / trellis=2 / 8x8dct=1 / cqm=0 / deadzone=21,11 / fast_pskip=1 / chroma_qp_offset=-3 / threads=12 / lookahead_threads=2 / sliced_threads=0 / slices=4 / nr=0 / decimate=1 / interlaced=0 / bluray_compat=1 / constrained_intra=0 / bframes=3 / b_pyramid=1 / b_adapt=2 / b_bias=0 / direct=3 / weightb=1 / open_gop=1 / weightp=1 / keyint=24 / keyint_min=1 / scenecut=40 / intra_refresh=0 / rc_lookahead=24 / rc=2pass / mbtree=0 / bitrate=30000 / ratetol=1.0 / qcomp=0.20 / qpmin=0 / qpmax=69 / qpstep=4 / cplxblur=20.0 / qblur=0.5 / vbv_maxrate=38000 / vbv_bufsize=28500 / nal_hrd=vbr / ip_ratio=1.40 / pb_ratio=1.30 / aq=1:1.00
Language : English
Default : Yes
Forced : No
Color range : Limited
Color primaries : BT.709
Transfer characteristics : BT.709
Matrix coefficients : BT.709
Audio #1
ID : 2
Format : DTS
Format/Info : Digital Theater Systems
Format profile : MA / Core
Mode : 16
Format settings, Endianness : Big
Codec ID : A_DTS
Duration : 27mn 26s
Bit rate mode : Variable
Bit rate : Unknown / 768 Kbps
Channel(s) : 2 channels
Channel positions : Front: L R
Sampling rate : 48.0 KHz
Bit depth : 16 bits
Compression mode : Lossless / Lossy
Title : Music by Carl Davis
Default : Yes
Forced : No
Audio #2
ID : 3
Format : FLAC
Format/Info : Free Lossless Audio Codec
Codec ID : A_FLAC
Duration : 27mn 26s
Bit rate mode : Variable
Channel(s) : 2 channels
Sampling rate : 48.0 KHz
Bit depth : 16 bits
Title : Improvisational Piano by Gabriel Thibaudeau
Writing library : libFLAC 1.3.1 (UTC 2014-11-25)
Default : No
Forced : No
Audio #3
ID : 4
Format : AC-3
Format/Info : Audio Coding 3
Mode extension : CM (complete main)
Format settings, Endianness : Big
Codec ID : A_AC3
Duration : 27mn 26s
Bit rate mode : Constant
Bit rate : 192 Kbps
Channel(s) : 2 channels
Channel positions : Front: L R
Sampling rate : 48.0 KHz
Compression mode : Lossy
Stream size : 37.7 MiB (1%)
Title : Commentary by Dan Kamin
Language : English
Default : No
Forced : No
Text
ID : 5
Format : UTF-8
Codec ID : S_TEXT/UTF8
Codec ID/Info : UTF-8 Plain Text
Language : Russian
Default : Yes
Forced : No
Menu
00:00:00.000 : en:Chapter 1
00:00:53.136 : en:Chapter 2
00:05:23.782 : en:Chapter 3
00:11:30.982 : en:Chapter 4
00:20:13.379 : en:Chapter 5

05. The Count / Граф

Год выпуска: 1916
Продолжительность: 00:25:15-В ролях: Эрик Кэмпбелл, Чарльз Чаплин, Эдна Пёвайнс, Альберт Остин, Генри Бергман, Леота Брайан, Фрэнк Дж. Коулмэн, Джеймс Т. Келли, Шарлотта Мино, Джон Рэнд-Описание:
В фильме «Граф» главный герой — портняжка при сердитом хозяине с нелепой бородой. Причем оба добиваются расположения богатой дамы, у которой случайно оказались на балу. Каждый из них выдает себя за знатного графа. Полная неразбериха, потасовки, швыряния мороженым и, естественно, непрерывный смех.-Скриншоты

MI

General
Unique ID : 252834728829884538855155341451470825094 (0xBE363290E59689F8B2ABEC59490BE686)
Complete name : 05.The.Count.1916.1080p.BDRemux.mkv
Format : Matroska
Format version : Version 2
File size : 5.44 GiB
Duration : 25mn 15s
Overall bit rate mode : Variable
Overall bit rate : 30.8 Mbps
Movie name : The Count / Граф (1916) – RuTracker
Encoded date : UTC 2015-12-21 20:29:49
Writing application : mkvmerge v8.3.0 ('Over the Horizon') 64bit
Writing library : libebml v1.3.1 + libmatroska v1.4.2
Attachements : cover.jpg
Video
ID : 1
Format : AVC
Format/Info : Advanced Video Codec
Format profile : High@L4.1
Format settings, CABAC : Yes
Format settings, ReFrames : 3 frames
Codec ID : V_MPEG4/ISO/AVC
Duration : 25mn 15s
Bit rate mode : Variable
Nominal bit rate : 30.0 Mbps
Maximum bit rate : 38.0 Mbps
Width : 1 920 pixels
Height : 1 080 pixels
Display aspect ratio : 16:9
Frame rate mode : Constant
Frame rate : 23.976 fps
Color space : YUV
Chroma subsampling : 4:2:0
Bit depth : 8 bits
Scan type : Progressive
Bits/(Pixel*Frame) : 0.603
Writing library : x264 core 128 r2216 198a7ea
Encoding settings : cabac=1 / ref=4 / deblock=0:-1:-1 / analyse=0x3:0x133 / me=umh / subme=10 / psy=1 / psy_rd=1.00:0.15 / mixed_ref=1 / me_range=24 / chroma_me=1 / trellis=2 / 8x8dct=1 / cqm=0 / deadzone=21,11 / fast_pskip=1 / chroma_qp_offset=-3 / threads=12 / lookahead_threads=2 / sliced_threads=0 / slices=4 / nr=0 / decimate=1 / interlaced=0 / bluray_compat=1 / constrained_intra=0 / bframes=3 / b_pyramid=1 / b_adapt=2 / b_bias=0 / direct=3 / weightb=1 / open_gop=1 / weightp=1 / keyint=24 / keyint_min=1 / scenecut=40 / intra_refresh=0 / rc_lookahead=24 / rc=2pass / mbtree=0 / bitrate=30000 / ratetol=1.0 / qcomp=0.00 / qpmin=0 / qpmax=69 / qpstep=4 / cplxblur=20.0 / qblur=0.5 / vbv_maxrate=38000 / vbv_bufsize=28500 / nal_hrd=vbr / ip_ratio=1.40 / pb_ratio=1.30 / aq=1:1.00
Language : English
Default : Yes
Forced : No
Color range : Limited
Color primaries : BT.709
Transfer characteristics : BT.709
Matrix coefficients : BT.709
Audio #1
ID : 2
Format : DTS
Format/Info : Digital Theater Systems
Format profile : MA / Core
Mode : 16
Format settings, Endianness : Big
Codec ID : A_DTS
Duration : 25mn 15s
Bit rate mode : Variable
Bit rate : Unknown / 768 Kbps
Channel(s) : 2 channels
Channel positions : Front: L R
Sampling rate : 48.0 KHz
Bit depth : 16 bits
Compression mode : Lossless / Lossy
Title : Music by Carl Davis
Default : Yes
Forced : No
Audio #2
ID : 3
Format : FLAC
Format/Info : Free Lossless Audio Codec
Codec ID : A_FLAC
Duration : 25mn 15s
Bit rate mode : Variable
Channel(s) : 2 channels
Sampling rate : 48.0 KHz
Bit depth : 16 bits
Title : Music by Donald Sosin, Peter Breiner and Richard A. Whiting
Writing library : libFLAC 1.3.1 (UTC 2014-11-25)
Default : No
Forced : No
Audio #3
ID : 4
Format : FLAC
Format/Info : Free Lossless Audio Codec
Codec ID : A_FLAC
Duration : 25mn 15s
Bit rate mode : Variable
Channel(s) : 2 channels
Sampling rate : 48.0 KHz
Bit depth : 16 bits
Title : Improvisational Piano by Neil Brand
Writing library : libFLAC 1.3.1 (UTC 2014-11-25)
Default : No
Forced : No
Audio #4
ID : 5
Format : AC-3
Format/Info : Audio Coding 3
Mode extension : CM (complete main)
Format settings, Endianness : Big
Codec ID : A_AC3
Duration : 25mn 15s
Bit rate mode : Constant
Bit rate : 192 Kbps
Channel(s) : 2 channels
Channel positions : Front: L R
Sampling rate : 48.0 KHz
Compression mode : Lossy
Stream size : 34.7 MiB (1%)
Title : Commentary by Frank Scheide
Language : English
Default : No
Forced : No
Text
ID : 6
Format : UTF-8
Codec ID : S_TEXT/UTF8
Codec ID/Info : UTF-8 Plain Text
Language : Russian
Default : Yes
Forced : No
Menu
00:00:00.000 : en:Chapter 1
00:01:06.566 : en:Chapter 2
00:06:14.040 : en:Chapter 3
00:11:08.167 : en:Chapter 4
00:19:41.597 : en:Chapter 5

06. The Pawnshop / Лавка ростовщика

Год выпуска: 1916
Продолжительность: 00:26:42-В ролях: Чарльз Чаплин, Генри Бергман, Эдна Пёвайнс, Джон Рэнд, Альберт Остин, Уэсли Рагглз, Эрик Кэмпбелл, Джеймс Т. Келли, Фрэнк Дж. Коулмэн-Описание:
Чарли приняли на работу в лавку ростовщика. Его враг — помощник хозяина. Чарли попадает в кучу комических ситуаций, принимая часы в залог от клиента…-Скриншоты

MI

General
Unique ID : 179779454434978930369751119837596853095 (0x87404372A6C6FFDFA31F9D682A19A367)
Complete name : 06.The.Pawnshop.1916.1080p.BDRemux.mkv
Format : Matroska
Format version : Version 2
File size : 5.80 GiB
Duration : 26mn 42s
Overall bit rate mode : Variable
Overall bit rate : 31.1 Mbps
Movie name : The Pawnshop / Лавка ростовщика (1916) – RuTracker
Encoded date : UTC 2015-12-21 20:33:19
Writing application : mkvmerge v8.3.0 ('Over the Horizon') 64bit
Writing library : libebml v1.3.1 + libmatroska v1.4.2
Attachements : cover.jpg
Video
ID : 1
Format : AVC
Format/Info : Advanced Video Codec
Format profile : High@L4.1
Format settings, CABAC : Yes
Format settings, ReFrames : 3 frames
Codec ID : V_MPEG4/ISO/AVC
Duration : 26mn 42s
Bit rate mode : Variable
Nominal bit rate : 30.0 Mbps
Maximum bit rate : 38.0 Mbps
Width : 1 920 pixels
Height : 1 080 pixels
Display aspect ratio : 16:9
Frame rate mode : Constant
Frame rate : 23.976 fps
Color space : YUV
Chroma subsampling : 4:2:0
Bit depth : 8 bits
Scan type : Progressive
Bits/(Pixel*Frame) : 0.603
Writing library : x264 core 128 r2216 198a7ea
Encoding settings : cabac=1 / ref=4 / deblock=0:-1:-1 / analyse=0x3:0x133 / me=umh / subme=10 / psy=1 / psy_rd=1.00:0.15 / mixed_ref=1 / me_range=24 / chroma_me=1 / trellis=2 / 8x8dct=1 / cqm=0 / deadzone=21,11 / fast_pskip=1 / chroma_qp_offset=-3 / threads=12 / lookahead_threads=2 / sliced_threads=0 / slices=4 / nr=0 / decimate=1 / interlaced=0 / bluray_compat=1 / constrained_intra=0 / bframes=3 / b_pyramid=1 / b_adapt=2 / b_bias=0 / direct=3 / weightb=1 / open_gop=1 / weightp=1 / keyint=24 / keyint_min=1 / scenecut=40 / intra_refresh=0 / rc_lookahead=24 / rc=2pass / mbtree=0 / bitrate=30000 / ratetol=1.0 / qcomp=0.00 / qpmin=0 / qpmax=69 / qpstep=4 / cplxblur=20.0 / qblur=0.5 / vbv_maxrate=38000 / vbv_bufsize=28500 / nal_hrd=vbr / ip_ratio=1.40 / pb_ratio=1.30 / aq=1:1.00
Language : English
Default : Yes
Forced : No
Color range : Limited
Color primaries : BT.709
Transfer characteristics : BT.709
Matrix coefficients : BT.709
Audio #1
ID : 2
Format : DTS
Format/Info : Digital Theater Systems
Format profile : MA / Core
Mode : 16
Format settings, Endianness : Big
Codec ID : A_DTS
Duration : 26mn 42s
Bit rate mode : Variable
Bit rate : Unknown / 768 Kbps
Channel(s) : 2 channels
Channel positions : Front: L R
Sampling rate : 48.0 KHz
Bit depth : 16 bits
Compression mode : Lossless / Lossy
Title : Music by Carl Davis
Default : Yes
Forced : No
Audio #2
ID : 3
Format : FLAC
Format/Info : Free Lossless Audio Codec
Codec ID : A_FLAC
Duration : 26mn 42s
Bit rate mode : Variable
Channel(s) : 2 channels
Sampling rate : 48.0 KHz
Bit depth : 16 bits
Title : Music by Winston Sharples & Gene Rodemich
Writing library : libFLAC 1.3.1 (UTC 2014-11-25)
Default : No
Forced : No
Audio #3
ID : 4
Format : FLAC
Format/Info : Free Lossless Audio Codec
Codec ID : A_FLAC
Duration : 26mn 42s
Bit rate mode : Variable
Channel(s) : 2 channels
Sampling rate : 48.0 KHz
Bit depth : 16 bits
Title : Improvisational Piano by Donald Sosin
Writing library : libFLAC 1.3.1 (UTC 2014-11-25)
Default : No
Forced : No
Audio #4
ID : 5
Format : AC-3
Format/Info : Audio Coding 3
Mode extension : CM (complete main)
Format settings, Endianness : Big
Codec ID : A_AC3
Duration : 26mn 42s
Bit rate mode : Constant
Bit rate : 192 Kbps
Channel(s) : 2 channels
Channel positions : Front: L R
Sampling rate : 48.0 KHz
Compression mode : Lossy
Stream size : 36.7 MiB (1%)
Title : Commentary by Dan Kamin
Language : English
Default : No
Forced : No
Text
ID : 6
Format : UTF-8
Codec ID : S_TEXT/UTF8
Codec ID/Info : UTF-8 Plain Text
Language : Russian
Default : Yes
Forced : No
Menu
00:00:00.000 : en:Chapter 1
00:01:02.479 : en:Chapter 2
00:07:46.174 : en:Chapter 3
00:14:23.112 : en:Chapter 4
00:18:44.248 : en:Chapter 5

07. Behind the Screen / За экраном

Год выпуска: 1916
Продолжительность: 00:25:23-В ролях: Эрик Кэмпбелл, Чарльз Чаплин, Эдна Пёвайнс, Альберт Остин, Ллойд Бэйкон, Генри Бергман, Леота Брайан, Фрэнк Дж. Коулмэн, Джеймс Т. Келли, Шарлотта Мино-Описание:
Маленький, всеми помыкаемый реквизитор Давид, выведенный из себя бесконечными придирками ленивых рабочих и прежде всего собственного начальника по имени Голиаф, устраивает забастовку и начинает мстить своим обидчикам. Ему помогает девушка, которая ищет работу и переоделась парнем. Когда Давид выясняет, что это девушка, то влюбляется в нее…-Скриншоты

MI

General
Unique ID : 246066630778755064557419144297145402186 (0xB91EB5919CEE4EBDACFBFA37BC8F834A)
Complete name : 07.Behind.the.Screen.1916.1080p.BDRemux.mkv
Format : Matroska
Format version : Version 2
File size : 6.00 GiB
Duration : 25mn 23s
Overall bit rate mode : Variable
Overall bit rate : 33.8 Mbps
Movie name : Behind the Screen / За экраном (1916) – RuTracker
Encoded date : UTC 2015-12-22 17:29:37
Writing application : mkvmerge v8.3.0 ('Over the Horizon') 64bit
Writing library : libebml v1.3.1 + libmatroska v1.4.2
Attachements : cover.jpg
Video
ID : 1
Format : AVC
Format/Info : Advanced Video Codec
Format profile : High@L4.1
Format settings, CABAC : Yes
Format settings, ReFrames : 3 frames
Codec ID : V_MPEG4/ISO/AVC
Duration : 25mn 23s
Bit rate mode : Variable
Nominal bit rate : 33.0 Mbps
Maximum bit rate : 38.0 Mbps
Width : 1 920 pixels
Height : 1 080 pixels
Display aspect ratio : 16:9
Frame rate mode : Constant
Frame rate : 23.976 fps
Color space : YUV
Chroma subsampling : 4:2:0
Bit depth : 8 bits
Scan type : Progressive
Bits/(Pixel*Frame) : 0.664
Writing library : x264 core 128 r2216 198a7ea
Encoding settings : cabac=1 / ref=4 / deblock=0:-1:-1 / analyse=0x3:0x133 / me=umh / subme=10 / psy=1 / psy_rd=1.00:0.15 / mixed_ref=1 / me_range=24 / chroma_me=1 / trellis=2 / 8x8dct=1 / cqm=0 / deadzone=21,11 / fast_pskip=1 / chroma_qp_offset=-3 / threads=12 / lookahead_threads=2 / sliced_threads=0 / slices=4 / nr=0 / decimate=1 / interlaced=0 / bluray_compat=1 / constrained_intra=0 / bframes=3 / b_pyramid=1 / b_adapt=2 / b_bias=0 / direct=3 / weightb=1 / open_gop=1 / weightp=1 / keyint=24 / keyint_min=1 / scenecut=40 / intra_refresh=0 / rc_lookahead=24 / rc=2pass / mbtree=0 / bitrate=33000 / ratetol=1.0 / qcomp=0.00 / qpmin=0 / qpmax=69 / qpstep=4 / cplxblur=20.0 / qblur=0.5 / vbv_maxrate=38000 / vbv_bufsize=28500 / nal_hrd=vbr / ip_ratio=1.40 / pb_ratio=1.30 / aq=1:1.00
Language : English
Default : Yes
Forced : No
Color range : Limited
Color primaries : BT.709
Transfer characteristics : BT.709
Matrix coefficients : BT.709
Audio #1
ID : 2
Format : DTS
Format/Info : Digital Theater Systems
Format profile : MA / Core
Mode : 16
Format settings, Endianness : Big
Codec ID : A_DTS
Duration : 25mn 23s
Bit rate mode : Variable
Bit rate : Unknown / 768 Kbps
Channel(s) : 2 channels
Channel positions : Front: L R
Sampling rate : 48.0 KHz
Bit depth : 16 bits
Compression mode : Lossless / Lossy
Title : Music by Carl Davis
Default : Yes
Forced : No
Audio #2
ID : 3
Format : FLAC
Format/Info : Free Lossless Audio Codec
Codec ID : A_FLAC
Duration : 25mn 23s
Bit rate mode : Variable
Channel(s) : 2 channels
Sampling rate : 48.0 KHz
Bit depth : 16 bits
Title : Music by Robert Israel
Writing library : libFLAC 1.3.1 (UTC 2014-11-25)
Default : No
Forced : No
Audio #3
ID : 4
Format : FLAC
Format/Info : Free Lossless Audio Codec
Codec ID : A_FLAC
Duration : 25mn 23s
Bit rate mode : Variable
Channel(s) : 2 channels
Sampling rate : 48.0 KHz
Bit depth : 16 bits
Title : Improvisational Piano by Antonio Coppola
Writing library : libFLAC 1.3.1 (UTC 2014-11-25)
Default : No
Forced : No
Audio #4
ID : 5
Format : AC-3
Format/Info : Audio Coding 3
Mode extension : CM (complete main)
Format settings, Endianness : Big
Codec ID : A_AC3
Duration : 25mn 23s
Bit rate mode : Constant
Bit rate : 192 Kbps
Channel(s) : 2 channels
Channel positions : Front: L R
Sampling rate : 48.0 KHz
Compression mode : Lossy
Stream size : 34.9 MiB (1%)
Title : Commentary by Hooman Mehran
Language : English
Default : No
Forced : No
Text
ID : 6
Format : UTF-8
Codec ID : S_TEXT/UTF8
Codec ID/Info : UTF-8 Plain Text
Language : Russian
Default : Yes
Forced : No
Menu
00:00:00.000 : en:Chapter 1
00:01:03.480 : en:Chapter 2
00:06:44.029 : en:Chapter 3
00:13:11.249 : en:Chapter 4
00:19:12.735 : en:Chapter 5

08. The Rink / Каток / Скетинг-ринг

Год выпуска: 1916
Продолжительность: 00:25:54-В ролях: Чарльз Чаплин, Эдна Пёвайнс, Джеймс Т. Келли, Эрик Кэмпбелл, Генри Бергман, Ллойд Бэйкон, Альберт Остин, Фрэнк Дж. Коулмэн, Джон Рэнд, Шарлотта Мино-Описание:
Герой Чарли работает в ресторане. После череды приключений на работе он во время ланча отправляется отдохнуть на каток. Там он видит, как мистер Стаут активно ухаживает за девушкой, которой он не нравится. Вечером Чарли появляется на вечеринке у той девушки, представляясь как сэр Сесиль Зельцер…-Скриншоты

MI

General
Unique ID : 201644849054004651010830928551499752198 (0x97B362A286BE5ECBB9F44574D8A76306)
Complete name : 08.The.Rink.1916.1080p.BDRemux.mkv
Format : Matroska
Format version : Version 2
File size : 6.15 GiB
Duration : 25mn 54s
Overall bit rate mode : Variable
Overall bit rate : 34.0 Mbps
Movie name : The Rink / Каток (1916) – RuTracker
Encoded date : UTC 2015-12-22 17:33:31
Writing application : mkvmerge v8.3.0 ('Over the Horizon') 64bit
Writing library : libebml v1.3.1 + libmatroska v1.4.2
Attachements : cover.jpg
Video
ID : 1
Format : AVC
Format/Info : Advanced Video Codec
Format profile : High@L4.1
Format settings, CABAC : Yes
Format settings, ReFrames : 3 frames
Codec ID : V_MPEG4/ISO/AVC
Duration : 25mn 54s
Bit rate mode : Variable
Nominal bit rate : 33.0 Mbps
Maximum bit rate : 38.0 Mbps
Width : 1 920 pixels
Height : 1 080 pixels
Display aspect ratio : 16:9
Frame rate mode : Constant
Frame rate : 23.976 fps
Color space : YUV
Chroma subsampling : 4:2:0
Bit depth : 8 bits
Scan type : Progressive
Bits/(Pixel*Frame) : 0.664
Writing library : x264 core 128 r2216 198a7ea
Encoding settings : cabac=1 / ref=4 / deblock=0:-1:-1 / analyse=0x3:0x133 / me=umh / subme=10 / psy=1 / psy_rd=1.00:0.15 / mixed_ref=1 / me_range=24 / chroma_me=1 / trellis=2 / 8x8dct=1 / cqm=0 / deadzone=21,11 / fast_pskip=1 / chroma_qp_offset=-3 / threads=12 / lookahead_threads=2 / sliced_threads=0 / slices=4 / nr=0 / decimate=1 / interlaced=0 / bluray_compat=1 / constrained_intra=0 / bframes=3 / b_pyramid=1 / b_adapt=2 / b_bias=0 / direct=3 / weightb=1 / open_gop=1 / weightp=1 / keyint=24 / keyint_min=1 / scenecut=40 / intra_refresh=0 / rc_lookahead=24 / rc=2pass / mbtree=0 / bitrate=33000 / ratetol=1.0 / qcomp=0.00 / qpmin=0 / qpmax=69 / qpstep=4 / cplxblur=20.0 / qblur=0.5 / vbv_maxrate=38000 / vbv_bufsize=28500 / nal_hrd=vbr / ip_ratio=1.40 / pb_ratio=1.30 / aq=1:1.00
Language : English
Default : Yes
Forced : No
Color range : Limited
Color primaries : BT.709
Transfer characteristics : BT.709
Matrix coefficients : BT.709
Audio #1
ID : 2
Format : DTS
Format/Info : Digital Theater Systems
Format profile : MA / Core
Mode : 16
Format settings, Endianness : Big
Codec ID : A_DTS
Duration : 25mn 54s
Bit rate mode : Variable
Bit rate : Unknown / 768 Kbps
Channel(s) : 2 channels
Channel positions : Front: L R
Sampling rate : 48.0 KHz
Bit depth : 16 bits
Compression mode : Lossless / Lossy
Title : Music by Carl Davis
Default : Yes
Forced : No
Audio #2
ID : 3
Format : FLAC
Format/Info : Free Lossless Audio Codec
Codec ID : A_FLAC
Duration : 25mn 54s
Bit rate mode : Variable
Channel(s) : 2 channels
Sampling rate : 48.0 KHz
Bit depth : 16 bits
Title : Music by Antonio Coppola
Writing library : libFLAC 1.3.1 (UTC 2014-11-25)
Default : No
Forced : No
Audio #3
ID : 4
Format : FLAC
Format/Info : Free Lossless Audio Codec
Codec ID : A_FLAC
Duration : 25mn 54s
Bit rate mode : Variable
Channel(s) : 2 channels
Sampling rate : 48.0 KHz
Bit depth : 16 bits
Title : Improvisational Piano by Maud Nelissen
Writing library : libFLAC 1.3.1 (UTC 2014-11-25)
Default : No
Forced : No
Audio #4
ID : 5
Format : AC-3
Format/Info : Audio Coding 3
Mode extension : CM (complete main)
Format settings, Endianness : Big
Codec ID : A_AC3
Duration : 25mn 54s
Bit rate mode : Constant
Bit rate : 192 Kbps
Channel(s) : 2 channels
Channel positions : Front: L R
Sampling rate : 48.0 KHz
Compression mode : Lossy
Stream size : 35.6 MiB (1%)
Title : Commentary by Hooman Mehran
Language : English
Default : No
Forced : No
Text
ID : 6
Format : UTF-8
Codec ID : S_TEXT/UTF8
Codec ID/Info : UTF-8 Plain Text
Language : Russian
Default : Yes
Forced : No
Menu
00:00:00.000 : en:Chapter 1
00:00:59.101 : en:Chapter 2
00:05:54.563 : en:Chapter 3
00:12:24.369 : en:Chapter 4
00:19:41.931 : en:Chapter 5

09. Easy Street / Тихая улица / Беспечная улица

Год выпуска: 1917
Продолжительность: 00:27:11-В ролях: Чарльз Чаплин, Эдна Пёвайнс, Эрик Кэмпбелл, Альберт Остин, Ллойд Бэйкон, Генри Бергман, Фрэнк Дж. Коулмэн, Уильям Гиллеспи, Джеймс Т. Келли, Шарлотта Мино-Описание:
В этом фильме Чарли как бы начинает новую жизнь — он поступает на работу в полицию. В полиции его направляют на самый опасный участок — на одну из «тихих улиц» городских трущоб, которую единовластно держит в страхе местный «авторитет». Схватка щуплого Чарли и громадного верзилы неизбежна.-Скриншоты

MI

General
Unique ID : 214164304795924345617794385562496015966 (0xA11E8B758EB605D88D4376E6DCEA1E5E)
Complete name : 09.Easy.Street.1917.1080p.BDRemux.mkv
Format : Matroska
Format version : Version 2
File size : 6.51 GiB
Duration : 27mn 11s
Overall bit rate mode : Variable
Overall bit rate : 34.3 Mbps
Movie name : Easy Street / Тихая улица / Беспечная улица (1917) – RuTracker
Encoded date : UTC 2015-12-22 17:37:40
Writing application : mkvmerge v8.3.0 ('Over the Horizon') 64bit
Writing library : libebml v1.3.1 + libmatroska v1.4.2
Attachements : cover.jpg
Video
ID : 1
Format : AVC
Format/Info : Advanced Video Codec
Format profile : High@L4.1
Format settings, CABAC : Yes
Format settings, ReFrames : 3 frames
Codec ID : V_MPEG4/ISO/AVC
Duration : 27mn 11s
Bit rate mode : Variable
Nominal bit rate : 33.0 Mbps
Maximum bit rate : 38.0 Mbps
Width : 1 920 pixels
Height : 1 080 pixels
Display aspect ratio : 16:9
Frame rate mode : Constant
Frame rate : 23.976 fps
Color space : YUV
Chroma subsampling : 4:2:0
Bit depth : 8 bits
Scan type : Progressive
Bits/(Pixel*Frame) : 0.664
Writing library : x264 core 128 r2216 198a7ea
Encoding settings : cabac=1 / ref=4 / deblock=0:-1:-1 / analyse=0x3:0x133 / me=umh / subme=10 / psy=1 / psy_rd=1.00:0.15 / mixed_ref=1 / me_range=24 / chroma_me=1 / trellis=2 / 8x8dct=1 / cqm=0 / deadzone=21,11 / fast_pskip=1 / chroma_qp_offset=-3 / threads=12 / lookahead_threads=2 / sliced_threads=0 / slices=4 / nr=0 / decimate=1 / interlaced=0 / bluray_compat=1 / constrained_intra=0 / bframes=3 / b_pyramid=1 / b_adapt=2 / b_bias=0 / direct=3 / weightb=1 / open_gop=1 / weightp=1 / keyint=24 / keyint_min=1 / scenecut=40 / intra_refresh=0 / rc_lookahead=24 / rc=2pass / mbtree=0 / bitrate=33000 / ratetol=1.0 / qcomp=0.00 / qpmin=0 / qpmax=69 / qpstep=4 / cplxblur=20.0 / qblur=0.5 / vbv_maxrate=38000 / vbv_bufsize=28500 / nal_hrd=vbr / ip_ratio=1.40 / pb_ratio=1.30 / aq=1:1.00
Language : English
Default : Yes
Forced : No
Color range : Limited
Color primaries : BT.709
Transfer characteristics : BT.709
Matrix coefficients : BT.709
Audio #1
ID : 2
Format : DTS
Format/Info : Digital Theater Systems
Format profile : MA / Core
Mode : 16
Format settings, Endianness : Big
Codec ID : A_DTS
Duration : 27mn 11s
Bit rate mode : Variable
Bit rate : Unknown / 768 Kbps
Channel(s) : 2 channels
Channel positions : Front: L R
Sampling rate : 48.0 KHz
Bit depth : 16 bits
Compression mode : Lossless / Lossy
Title : Music by Carl Davis
Default : Yes
Forced : No
Audio #2
ID : 3
Format : FLAC
Format/Info : Free Lossless Audio Codec
Codec ID : A_FLAC
Duration : 27mn 11s
Bit rate mode : Variable
Channel(s) : 2 channels
Sampling rate : 48.0 KHz
Bit depth : 16 bits
Title : Music by Neil Brand
Writing library : libFLAC 1.3.1 (UTC 2014-11-25)
Default : No
Forced : No
Audio #3
ID : 4
Format : FLAC
Format/Info : Free Lossless Audio Codec
Codec ID : A_FLAC
Duration : 27mn 11s
Bit rate mode : Variable
Channel(s) : 2 channels
Sampling rate : 48.0 KHz
Bit depth : 16 bits
Title : Improvisational Piano by Donald Sosin
Writing library : libFLAC 1.3.1 (UTC 2014-11-25)
Default : No
Forced : No
Audio #4
ID : 5
Format : AC-3
Format/Info : Audio Coding 3
Mode extension : CM (complete main)
Format settings, Endianness : Big
Codec ID : A_AC3
Duration : 27mn 11s
Bit rate mode : Constant
Bit rate : 192 Kbps
Channel(s) : 2 channels
Channel positions : Front: L R
Sampling rate : 48.0 KHz
Compression mode : Lossy
Stream size : 37.3 MiB (1%)
Title : Commentary by Bryony Dixon
Language : English
Default : No
Forced : No
Text
ID : 6
Format : UTF-8
Codec ID : S_TEXT/UTF8
Codec ID/Info : UTF-8 Plain Text
Language : Russian
Default : Yes
Forced : No
Menu
00:00:00.000 : en:Chapter 1
00:00:48.548 : en:Chapter 2
00:06:05.365 : en:Chapter 3
00:16:17.560 : en:Chapter 4
00:21:38.380 : en:Chapter 5

10. The Cure / Лечение / Исцеление

Год выпуска: 1917
Продолжительность: 00:26:26-В ролях: Чарльз Чаплин, Эдна Пёвайнс, Эрик Кэмпбелл, Генри Бергман, Джон Рэнд, Джеймс Т. Келли, Альберт Остин, Фрэнк Дж. Коулмэн, Леота Брайан, Уильям Гиллеспи-Описание:
На сей раз повод для смеха у Чаплина — распространенная человеческая слабость — любовь к алкоголю. В этом фильме герой фильма — не бродяжка, а богатый выпивоха, приехавший на курорт минеральных вод. Но целебные воды — не для него, он притащил с собой огромный баул со спиртным, которого отведали неожиданно для себя все отдыхающие.-Скриншоты

MI

eneral
Unique ID : 187401419342810821120402061469679025089 (0x8CFC3354D6ED1063B412438E4E16FBC1)
Complete name : 10.The.Cure.1917.1080p.BDRemux.mkv
Format : Matroska
Format version : Version 2
File size : 6.26 GiB
Duration : 26mn 26s
Overall bit rate mode : Variable
Overall bit rate : 33.9 Mbps
Movie name : The Cure / Лечение / Исцеление (1917) – RuTracker
Encoded date : UTC 2015-12-22 17:42:09
Writing application : mkvmerge v8.3.0 ('Over the Horizon') 64bit
Writing library : libebml v1.3.1 + libmatroska v1.4.2
Attachements : cover.jpg
Video
ID : 1
Format : AVC
Format/Info : Advanced Video Codec
Format profile : High@L4.1
Format settings, CABAC : Yes
Format settings, ReFrames : 3 frames
Codec ID : V_MPEG4/ISO/AVC
Duration : 26mn 26s
Bit rate mode : Variable
Nominal bit rate : 33.0 Mbps
Maximum bit rate : 38.0 Mbps
Width : 1 920 pixels
Height : 1 080 pixels
Display aspect ratio : 16:9
Frame rate mode : Constant
Frame rate : 23.976 fps
Color space : YUV
Chroma subsampling : 4:2:0
Bit depth : 8 bits
Scan type : Progressive
Bits/(Pixel*Frame) : 0.664
Writing library : x264 core 128 r2216 198a7ea
Encoding settings : cabac=1 / ref=4 / deblock=0:-1:-1 / analyse=0x3:0x133 / me=umh / subme=10 / psy=1 / psy_rd=1.00:0.15 / mixed_ref=1 / me_range=24 / chroma_me=1 / trellis=2 / 8x8dct=1 / cqm=0 / deadzone=21,11 / fast_pskip=1 / chroma_qp_offset=-3 / threads=12 / lookahead_threads=2 / sliced_threads=0 / slices=4 / nr=0 / decimate=1 / interlaced=0 / bluray_compat=1 / constrained_intra=0 / bframes=3 / b_pyramid=1 / b_adapt=2 / b_bias=0 / direct=3 / weightb=1 / open_gop=1 / weightp=1 / keyint=24 / keyint_min=1 / scenecut=40 / intra_refresh=0 / rc_lookahead=24 / rc=2pass / mbtree=0 / bitrate=33000 / ratetol=1.0 / qcomp=0.00 / qpmin=0 / qpmax=69 / qpstep=4 / cplxblur=20.0 / qblur=0.5 / vbv_maxrate=38000 / vbv_bufsize=28500 / nal_hrd=vbr / ip_ratio=1.40 / pb_ratio=1.30 / aq=1:1.00
Language : English
Default : Yes
Forced : No
Color range : Limited
Color primaries : BT.709
Transfer characteristics : BT.709
Matrix coefficients : BT.709
Audio #1
ID : 2
Format : DTS
Format/Info : Digital Theater Systems
Format profile : MA / Core
Mode : 16
Format settings, Endianness : Big
Codec ID : A_DTS
Duration : 26mn 26s
Bit rate mode : Variable
Bit rate : Unknown / 768 Kbps
Channel(s) : 2 channels
Channel positions : Front: L R
Sampling rate : 48.0 KHz
Bit depth : 16 bits
Compression mode : Lossless / Lossy
Title : Music by Carl Davis
Default : Yes
Forced : No
Audio #2
ID : 3
Format : FLAC
Format/Info : Free Lossless Audio Codec
Codec ID : A_FLAC
Duration : 26mn 26s
Bit rate mode : Variable
Channel(s) : 2 channels
Sampling rate : 48.0 KHz
Bit depth : 16 bits
Title : Music by Stephen Horne
Writing library : libFLAC 1.3.1 (UTC 2014-11-25)
Default : No
Forced : No
Audio #3
ID : 4
Format : FLAC
Format/Info : Free Lossless Audio Codec
Codec ID : A_FLAC
Duration : 26mn 26s
Bit rate mode : Variable
Channel(s) : 2 channels
Sampling rate : 48.0 KHz
Bit depth : 16 bits
Title : Improvisational Piano by Maud Nelissen
Writing library : libFLAC 1.3.1 (UTC 2014-11-25)
Default : No
Forced : No
Audio #4
ID : 5
Format : AC-3
Format/Info : Audio Coding 3
Mode extension : CM (complete main)
Format settings, Endianness : Big
Codec ID : A_AC3
Duration : 26mn 26s
Bit rate mode : Constant
Bit rate : 192 Kbps
Channel(s) : 2 channels
Channel positions : Front: L R
Sampling rate : 48.0 KHz
Compression mode : Lossy
Stream size : 36.3 MiB (1%)
Title : Commentary by Glenn Mitchell
Language : English
Default : No
Forced : No
Text
ID : 6
Format : UTF-8
Codec ID : S_TEXT/UTF8
Codec ID/Info : UTF-8 Plain Text
Language : Russian
Default : Yes
Forced : No
Menu
00:00:00.000 : en:Chapter 1
00:01:01.436 : en:Chapter 2
00:05:25.617 : en:Chapter 3
00:13:55.293 : en:Chapter 4
00:19:44.225 : en:Chapter 5

11. The Immigrant / Иммигрант

Год выпуска: 1917
Продолжительность: 00:25:11-В ролях: Чарльз Чаплин, Эдна Пёвайнс, Эрик Кэмпбелл, Альберт Остин, Генри Бергман, Китти Брэдбери, Фрэнк Дж. Коулмэн, Уильям Гиллеспи, Том Хэррингтон, Джеймс Т. Келли-Описание:
Немой комедийный шедевр Чаплина, который и сегодня не утратил иронии, остроты и сострадательности. Маленький Бродяга, он же иммигрант, переплывающий на корабле океан, чтобы увидеть «свободный мир», где его встречают пинками и тумаками…-Скриншоты

MI

General
Unique ID : 176338477813796440584164090086649479227 (0x84A98E33BC5C9EC198DDBCF7A107C03B)
Complete name : 11.The.Immigrant.1917.1080p.BDRemux.mkv
Format : Matroska
Format version : Version 2
File size : 5.93 GiB
Duration : 25mn 11s
Overall bit rate mode : Variable
Overall bit rate : 33.7 Mbps
Movie name : The Immigrant / Иммигрант (1917) – RuTracker
Encoded date : UTC 2015-12-22 17:45:53
Writing application : mkvmerge v8.3.0 ('Over the Horizon') 64bit
Writing library : libebml v1.3.1 + libmatroska v1.4.2
Attachements : cover.jpg
Video
ID : 1
Format : AVC
Format/Info : Advanced Video Codec
Format profile : High@L4.1
Format settings, CABAC : Yes
Format settings, ReFrames : 3 frames
Codec ID : V_MPEG4/ISO/AVC
Duration : 25mn 11s
Bit rate mode : Variable
Nominal bit rate : 33.0 Mbps
Maximum bit rate : 38.0 Mbps
Width : 1 920 pixels
Height : 1 080 pixels
Display aspect ratio : 16:9
Frame rate mode : Constant
Frame rate : 23.976 fps
Color space : YUV
Chroma subsampling : 4:2:0
Bit depth : 8 bits
Scan type : Progressive
Bits/(Pixel*Frame) : 0.664
Writing library : x264 core 128 r2216 198a7ea
Encoding settings : cabac=1 / ref=4 / deblock=0:-1:-1 / analyse=0x3:0x133 / me=umh / subme=10 / psy=1 / psy_rd=1.00:0.15 / mixed_ref=1 / me_range=24 / chroma_me=1 / trellis=2 / 8x8dct=1 / cqm=0 / deadzone=21,11 / fast_pskip=1 / chroma_qp_offset=-3 / threads=12 / lookahead_threads=2 / sliced_threads=0 / slices=4 / nr=0 / decimate=1 / interlaced=0 / bluray_compat=1 / constrained_intra=0 / bframes=3 / b_pyramid=1 / b_adapt=2 / b_bias=0 / direct=3 / weightb=1 / open_gop=1 / weightp=1 / keyint=24 / keyint_min=1 / scenecut=40 / intra_refresh=0 / rc_lookahead=24 / rc=2pass / mbtree=0 / bitrate=33000 / ratetol=1.0 / qcomp=0.00 / qpmin=0 / qpmax=69 / qpstep=4 / cplxblur=20.0 / qblur=0.5 / vbv_maxrate=38000 / vbv_bufsize=28500 / nal_hrd=vbr / ip_ratio=1.40 / pb_ratio=1.30 / aq=1:1.00
Language : English
Default : Yes
Forced : No
Color range : Limited
Color primaries : BT.709
Transfer characteristics : BT.709
Matrix coefficients : BT.709
Audio #1
ID : 2
Format : DTS
Format/Info : Digital Theater Systems
Format profile : MA / Core
Mode : 16
Format settings, Endianness : Big
Codec ID : A_DTS
Duration : 25mn 11s
Bit rate mode : Variable
Bit rate : Unknown / 768 Kbps
Channel(s) : 2 channels
Channel positions : Front: L R
Sampling rate : 48.0 KHz
Bit depth : 16 bits
Compression mode : Lossless / Lossy
Title : Music by Carl Davis
Default : Yes
Forced : No
Audio #2
ID : 3
Format : FLAC
Format/Info : Free Lossless Audio Codec
Codec ID : A_FLAC
Duration : 25mn 11s
Bit rate mode : Variable
Channel(s) : 2 channels
Sampling rate : 48.0 KHz
Bit depth : 16 bits
Title : Music by Timothy Brock
Writing library : libFLAC 1.3.1 (UTC 2014-11-25)
Default : No
Forced : No
Audio #3
ID : 4
Format : FLAC
Format/Info : Free Lossless Audio Codec
Codec ID : A_FLAC
Duration : 25mn 11s
Bit rate mode : Variable
Channel(s) : 2 channels
Sampling rate : 48.0 KHz
Bit depth : 16 bits
Title : Improvisational Piano by Donald Sosin
Writing library : libFLAC 1.3.1 (UTC 2014-11-25)
Default : No
Forced : No
Audio #4
ID : 5
Format : AC-3
Format/Info : Audio Coding 3
Mode extension : CM (complete main)
Format settings, Endianness : Big
Codec ID : A_AC3
Duration : 25mn 11s
Bit rate mode : Constant
Bit rate : 192 Kbps
Channel(s) : 2 channels
Channel positions : Front: L R
Sampling rate : 48.0 KHz
Compression mode : Lossy
Stream size : 34.6 MiB (1%)
Title : Commentary by Michael Hayde
Language : English
Default : No
Forced : No
Text
ID : 6
Format : UTF-8
Codec ID : S_TEXT/UTF8
Codec ID/Info : UTF-8 Plain Text
Language : Russian
Default : Yes
Forced : No
Menu
00:00:00.000 : en:Chapter 1
00:01:09.653 : en:Chapter 2
00:08:19.207 : en:Chapter 3
00:11:57.050 : en:Chapter 4
00:17:50.820 : en:Chapter 5

12. The Adventurer / Авантюрист / Искатель приключений

Год выпуска: 1917
Продолжительность: 00:26:54-В ролях: Чарльз Чаплин, Эдна Пёвайнс, Эрик Кэмпбелл, Генри Бергман, Альберт Остин, Филлис Аллен, Монта Белл, Фрэнк Дж. Коулмэн, Марта Голден, Джеймс Т. Келли-Описание:
Главный герой картины сбежал с каторги. Удирая от отряда полицейских, он проделывает каскад грандиозных трюков. В фильме лихо закручен сюжет: здесь и преследование, и спасение из воды, и перипетии на светском рауте.-Скриншоты

MI

General
Unique ID : 231510241653285355279964942774151898986 (0xAE2B402CC6D80AEA8E8C60509CC3676A)
Complete name : 12.The.Adventurer.1917.1080p.BDRemux.mkv
Format : Matroska
Format version : Version 2
File size : 6.40 GiB
Duration : 26mn 54s
Overall bit rate mode : Variable
Overall bit rate : 34.1 Mbps
Movie name : The Adventurer / Искатель приключений / Авантюрист (1917) – RuTracker
Encoded date : UTC 2015-12-22 17:49:59
Writing application : mkvmerge v8.3.0 ('Over the Horizon') 64bit
Writing library : libebml v1.3.1 + libmatroska v1.4.2
Attachements : cover.jpg
Video
ID : 1
Format : AVC
Format/Info : Advanced Video Codec
Format profile : High@L4.1
Format settings, CABAC : Yes
Format settings, ReFrames : 3 frames
Codec ID : V_MPEG4/ISO/AVC
Duration : 26mn 54s
Bit rate mode : Variable
Nominal bit rate : 33.0 Mbps
Maximum bit rate : 38.0 Mbps
Width : 1 920 pixels
Height : 1 080 pixels
Display aspect ratio : 16:9
Frame rate mode : Constant
Frame rate : 23.976 fps
Color space : YUV
Chroma subsampling : 4:2:0
Bit depth : 8 bits
Scan type : Progressive
Bits/(Pixel*Frame) : 0.664
Writing library : x264 core 128 r2216 198a7ea
Encoding settings : cabac=1 / ref=4 / deblock=0:-1:-1 / analyse=0x3:0x133 / me=umh / subme=10 / psy=1 / psy_rd=1.00:0.15 / mixed_ref=1 / me_range=24 / chroma_me=1 / trellis=2 / 8x8dct=1 / cqm=0 / deadzone=21,11 / fast_pskip=1 / chroma_qp_offset=-3 / threads=12 / lookahead_threads=2 / sliced_threads=0 / slices=4 / nr=0 / decimate=1 / interlaced=0 / bluray_compat=1 / constrained_intra=0 / bframes=3 / b_pyramid=1 / b_adapt=2 / b_bias=0 / direct=3 / weightb=1 / open_gop=1 / weightp=1 / keyint=24 / keyint_min=1 / scenecut=40 / intra_refresh=0 / rc_lookahead=24 / rc=2pass / mbtree=0 / bitrate=33000 / ratetol=1.0 / qcomp=0.00 / qpmin=0 / qpmax=69 / qpstep=4 / cplxblur=20.0 / qblur=0.5 / vbv_maxrate=38000 / vbv_bufsize=28500 / nal_hrd=vbr / ip_ratio=1.40 / pb_ratio=1.30 / aq=1:1.00
Language : English
Default : Yes
Forced : No
Color range : Limited
Color primaries : BT.709
Transfer characteristics : BT.709
Matrix coefficients : BT.709
Audio #1
ID : 2
Format : DTS
Format/Info : Digital Theater Systems
Format profile : MA / Core
Mode : 16
Format settings, Endianness : Big
Codec ID : A_DTS
Duration : 26mn 54s
Bit rate mode : Variable
Bit rate : Unknown / 768 Kbps
Channel(s) : 2 channels
Channel positions : Front: L R
Sampling rate : 48.0 KHz
Bit depth : 16 bits
Compression mode : Lossless / Lossy
Title : Music by Carl Davis
Default : Yes
Forced : No
Audio #2
ID : 3
Format : FLAC
Format/Info : Free Lossless Audio Codec
Codec ID : A_FLAC
Duration : 26mn 54s
Bit rate mode : Variable
Channel(s) : 2 channels
Sampling rate : 48.0 KHz
Bit depth : 16 bits
Title : Music by Robert Israel
Writing library : libFLAC 1.3.1 (UTC 2014-11-25)
Default : No
Forced : No
Audio #3
ID : 4
Format : FLAC
Format/Info : Free Lossless Audio Codec
Codec ID : A_FLAC
Duration : 26mn 54s
Bit rate mode : Variable
Channel(s) : 2 channels
Sampling rate : 48.0 KHz
Bit depth : 16 bits
Title : Improvisational Piano by Neil Brand
Writing library : libFLAC 1.3.1 (UTC 2014-11-25)
Default : No
Forced : No
Audio #4
ID : 5
Format : AC-3
Format/Info : Audio Coding 3
Mode extension : CM (complete main)
Format settings, Endianness : Big
Codec ID : A_AC3
Duration : 26mn 54s
Bit rate mode : Constant
Bit rate : 192 Kbps
Channel(s) : 2 channels
Channel positions : Front: L R
Sampling rate : 48.0 KHz
Compression mode : Lossy
Stream size : 37.0 MiB (1%)
Title : Commentary by Carl Davis
Language : English
Default : No
Forced : No
Text
ID : 6
Format : UTF-8
Codec ID : S_TEXT/UTF8
Codec ID/Info : UTF-8 Plain Text
Language : Russian
Default : Yes
Forced : No
Menu
00:00:00.000 : en:Chapter 1
00:00:58.934 : en:Chapter 2
00:06:19.671 : en:Chapter 3
00:13:00.446 : en:Chapter 4
00:20:19.093 : en:Chapter 5

_________________
Показать сообщения:    

Текущее время: Сегодня 15:59

Часовой пояс: GMT



Вы не можете начинать темы
Вы не можете отвечать на сообщения
Вы не можете редактировать свои сообщения
Вы не можете удалять свои сообщения
Вы не можете голосовать в опросах
Вы не можете прикреплять файлы к сообщениям
Вы не можете скачивать файлы