Ивановский Торрент трекер
Яндекс.Погода
 

[Цитировать]
HUNTER

Чарльз Чаплин: Короткометражные комедии студии «Эссеней» / Chaplin's Essanay
Comedies
Страна: СШАЖанр: короткометражка, комедияГод выпуска: 1915-1916Общая продолжительность: 06:16:11

Его новая работа

Его новая работа / His New Job
Год выпуска: 1915
Продолжительность: 00:29:22
Перевод: Профессиональный (одноголосый закадровый)
Cубтитры: русские
Оригинальная аудиодорожка: музыкальное сопровождение-Режиссер: Чарльз Чаплин / Charles Chaplin
В ролях: Чарльз Чаплин, Билли Армстронг, Агнес Эйрс, Артур В. Бейтс, Роберт Болдер, Фрэнк Дж. Коулмэн, Чарльз Хичкок, Чарльз Инсли, Шарлотта Мино, Джесс Роббинс
Описание: Безработный приходит на открытые пробы новых актёров в контору вымышленной киностудии "Лодстоун". Туда же приходит ещё один полупьяный и косоглазый претендент, с которым у безработного сразу же возникает соперничество. Удачно пройдя пробы, он получает работу и отправляется на студию, где ставится какая-то историческая драма с гусарами и дамами...-Тип релиза: BDRip 720p [CtrlHD]
Контейнер: MKV
Видео: x264/AVC, 942x720 at 23.976 fps, 9931 kbps
Аудио#1: Russian: 48 kHz, AC3, 2.0 ch, 192 kbps
Аудио#2: Music: 48 kHz, AC3, 2.0 ch, 640 kbps
Формат субтитров: softsub (SRT)
Сэмпл
MediaInfo
General
Unique ID : 173799791388481738793418047946556621401 (0x82C09F4C30E8BFBC8ABC42EEA89AC259)
Complete name : Chaplins Essanay Comedies. rutracker\His New Job.1915.720p.rutracker.mkv
Format : Matroska
Format version : Version 2
File size : 2.25 GiB
Duration : 29mn 23s
Overall bit rate : 11.0 Mbps
Movie name : Release for RuTracker
Writing application : mkvmerge v5.0.1 ('Es ist Sommer') built on Nov 6 2011 16:23:40
Writing library : libebml v1.2.2 + libmatroska v1.3.0
Video
ID : 1
Format : AVC
Format/Info : Advanced Video Codec
Format profile : High@L4.1
Format settings, CABAC : Yes
Format settings, ReFrames : 12 frames
Codec ID : V_MPEG4/ISO/AVC
Duration : 29mn 23s
Bit rate : 9 931 Kbps
Width : 942 pixels
Height : 720 pixels
Display aspect ratio : 4:3
Frame rate mode : Constant
Frame rate : 23.976 fps
Color space : YUV
Chroma subsampling : 4:2:0
Bit depth : 8 bits
Scan type : Progressive
Bits/(Pixel*Frame) : 0.611
Stream size : 2.04 GiB (90%)
Title : His.New.Job.1915.720p.x264-CtrlHD. rutracker
Writing library : x264 core 148 r2638kMod 7599210
Encoding settings : cabac=1 / ref=12 / deblock=1:-3:-3 / analyse=0x3:0x133 / me=umh / subme=9 / psy=1 / fade_compensate=0.00 / psy_rd=0.90:0.00 / mixed_ref=1 / me_range=32 / chroma_me=1 / trellis=2 / 8x8dct=1 / cqm=0 / deadzone=21,11 / fast_pskip=0 / chroma_qp_offset=-2 / threads=6 / lookahead_threads=1 / sliced_threads=0 / nr=0 / decimate=0 / interlaced=0 / bluray_compat=0 / constrained_intra=0 / fgo=0 / bframes=8 / b_pyramid=2 / b_adapt=2 / b_bias=0 / direct=3 / weightb=1 / open_gop=0 / weightp=2 / keyint=250 / keyint_min=23 / scenecut=40 / intra_refresh=0 / rc=crf / mbtree=0 / crf=18.0000 / qcomp=0.60 / qpmin=0 / qpmax=69 / qpstep=4 / ip_ratio=1.40 / pb_ratio=1.30 / aq=3:0.80
Language : English
Default : Yes
Forced : No
Audio #1
ID : 2
Format : AC-3
Format/Info : Audio Coding 3
Mode extension : CM (complete main)
Format settings, Endianness : Big
Codec ID : A_AC3
Duration : 29mn 23s
Bit rate mode : Constant
Bit rate : 192 Kbps
Channel(s) : 2 channels
Channel positions : Front: L R
Sampling rate : 48.0 KHz
Bit depth : 16 bits
Compression mode : Lossy
Stream size : 40.4 MiB (2%)
Language : Russian
Default : Yes
Forced : No
Audio #2
ID : 3
Format : AC-3
Format/Info : Audio Coding 3
Mode extension : CM (complete main)
Format settings, Endianness : Big
Codec ID : A_AC3
Duration : 29mn 23s
Bit rate mode : Constant
Bit rate : 640 Kbps
Channel(s) : 2 channels
Channel positions : Front: L R
Sampling rate : 48.0 KHz
Bit depth : 16 bits
Compression mode : Lossy
Stream size : 135 MiB (6%)
Default : No
Forced : No
Text
ID : 4
Format : UTF-8
Codec ID : S_TEXT/UTF8
Codec ID/Info : UTF-8 Plain Text
Language : Russian
Default : No
Forced : No
Menu
00:00:00.000 : en:00:00:00.000
00:05:04.888 : en:00:05:04.888
00:10:16.658 : en:00:10:16.658
00:15:13.037 : en:00:15:13.037
00:21:08.684 : en:00:21:08.684
00:25:27.317 : en:00:25:27.317
00:29:22.970 : en:00:29:22.970

Скриншоты

Ночь напролет

Ночь напролет / A Night Out
Год выпуска: 1915
Продолжительность: 00:27:53
Перевод: Профессиональный (одноголосый закадровый)
Cубтитры: русские
Оригинальная аудиодорожка: музыкальное сопровождение-Режиссер: Чарльз Чаплин / Charles Chaplin
В ролях: Чарльз Чаплин, Чарльз Аллен Дили, Фрэнк Долан, В. Коулмэн Элам, Эдди Фрайс, Фред Гудвинс, Мадрона Хикс, Бад Джеймисон, Дэниэл П. Келлехер
Описание: После посещения бара Чарли и Бен устраивают беспорядки в шикарном ресторане. Позже Чарли оказывается в компрометирующей ситуации в отеле с женой главного официанта.-Тип релиза: BDRip 720p [CtrlHD]
Контейнер: MKV
Видео: x264/AVC, 942x720 at 23.976 fps, 11 Mbps
Аудио#1: Russian: 48 kHz, AC3, 2.0 ch, 192 kbps
Аудио#2: Music: 48 kHz, AC3, 2.0 ch, 640 kbps
Формат субтитров: softsub (SRT)
Сэмпл
MediaInfo
General
Unique ID : 246096921336312954988374184992571417857 (0xB9248B0233119DBAB98F0E6B48B06501)
Complete name : Chaplins Essanay Comedies. rutracker\A Night Out.1915.720p.rutracker.mkv
Format : Matroska
Format version : Version 2
File size : 2.35 GiB
Duration : 27mn 52s
Overall bit rate : 12.1 Mbps
Movie name : Release for RuTracker
Writing application : mkvmerge v5.0.1 ('Es ist Sommer') built on Nov 6 2011 16:23:40
Writing library : libebml v1.2.2 + libmatroska v1.3.0
Video
ID : 1
Format : AVC
Format/Info : Advanced Video Codec
Format profile : High@L4.1
Format settings, CABAC : Yes
Format settings, ReFrames : 12 frames
Codec ID : V_MPEG4/ISO/AVC
Duration : 27mn 52s
Bit rate : 11.0 Mbps
Width : 942 pixels
Height : 720 pixels
Display aspect ratio : 4:3
Frame rate mode : Constant
Frame rate : 23.976 fps
Color space : YUV
Chroma subsampling : 4:2:0
Bit depth : 8 bits
Scan type : Progressive
Bits/(Pixel*Frame) : 0.677
Stream size : 2.14 GiB (91%)
Title : A.Night.Out.1915.720p.x264-CtrlHD. rutracker
Language : English
Default : Yes
Forced : No
Audio #1
ID : 2
Format : AC-3
Format/Info : Audio Coding 3
Mode extension : CM (complete main)
Format settings, Endianness : Big
Codec ID : A_AC3
Duration : 27mn 52s
Bit rate mode : Constant
Bit rate : 192 Kbps
Channel(s) : 2 channels
Channel positions : Front: L R
Sampling rate : 48.0 KHz
Bit depth : 16 bits
Compression mode : Lossy
Stream size : 38.3 MiB (2%)
Language : Russian
Default : Yes
Forced : No
Audio #2
ID : 3
Format : AC-3
Format/Info : Audio Coding 3
Mode extension : CM (complete main)
Format settings, Endianness : Big
Codec ID : A_AC3
Duration : 27mn 52s
Bit rate mode : Constant
Bit rate : 640 Kbps
Channel(s) : 2 channels
Channel positions : Front: L R
Sampling rate : 48.0 KHz
Bit depth : 16 bits
Compression mode : Lossy
Stream size : 128 MiB (5%)
Default : No
Forced : No
Text
ID : 4
Format : UTF-8
Codec ID : S_TEXT/UTF8
Codec ID/Info : UTF-8 Plain Text
Language : Russian
Default : No
Forced : No
Menu
00:00:00.000 : en:00:29:22.970
00:05:26.660 : en:00:34:50.130
00:10:53.444 : en:00:40:16.914
00:15:03.403 : en:00:44:26.873
00:19:52.775 : en:00:49:16.245
00:27:51.920 : en:00:57:15.390

Скриншоты

Чемпион

Чемпион / The Champion
Год выпуска: 1915
Продолжительность: 00:31:43
Перевод: Профессиональный (одноголосый закадровый)
Cубтитры: русские
Оригинальная аудиодорожка: музыкальное сопровождение-Режиссер: Чарльз Чаплин / Charles Chaplin
В ролях: Чарльз Чаплин, Гилберт М. «Мустанг Билли» Андерсон, Билли Армстронг, Ллойд Бэйкон, Билл Като, Фрэнк Долан, В. Коулмэн Элам, Эдди Фрайс, Бад Джеймисон, Дэниэл П. Келлехер
Описание: В поисках средств для существования герой Чаплина отправляется в боксёрский клуб, где непобедимый чемпион укладывает жаждущих денег новичков. Не тут-то было — набравшись терпения и собрав всю свою волю в кулак, наш герой отправляется побеждать…-Тип релиза: BDRip 720p [CtrlHD]
Контейнер: MKV
Видео: x264/AVC, 942x720 at 23.976 fps, 12.4 Mbps
Аудио#1: Russian: 48 kHz, AC3, 2.0 ch, 192 kbps
Аудио#2: Music: 48 kHz, AC3, 2.0 ch, 640 kbps
Формат субтитров: softsub (SRT)
Сэмпл
MediaInfo
General
Unique ID : 226744551968755670177561633265829878045 (0xAA95698851F121EB95A8CC0CFDB9191D)
Complete name : Chaplins Essanay Comedies. rutracker\The Champion.1915.720p.rutracker.mkv
Format : Matroska
Format version : Version 2
File size : 2.99 GiB
Duration : 31mn 43s
Overall bit rate : 13.5 Mbps
Movie name : Release for RuTracker
Writing application : mkvmerge v5.0.1 ('Es ist Sommer') built on Nov 6 2011 16:23:40
Writing library : libebml v1.2.2 + libmatroska v1.3.0
Video
ID : 1
Format : AVC
Format/Info : Advanced Video Codec
Format profile : High@L4.1
Format settings, CABAC : Yes
Format settings, ReFrames : 12 frames
Codec ID : V_MPEG4/ISO/AVC
Duration : 31mn 43s
Bit rate : 12.4 Mbps
Width : 942 pixels
Height : 720 pixels
Display aspect ratio : 4:3
Frame rate mode : Constant
Frame rate : 23.976 fps
Color space : YUV
Chroma subsampling : 4:2:0
Bit depth : 8 bits
Scan type : Progressive
Bits/(Pixel*Frame) : 0.761
Stream size : 2.74 GiB (92%)
Title : The Champion.1915.720p.x264-CtrlHD. rutracker
Language : English
Default : Yes
Forced : No
Audio #1
ID : 2
Format : AC-3
Format/Info : Audio Coding 3
Mode extension : CM (complete main)
Format settings, Endianness : Big
Codec ID : A_AC3
Duration : 31mn 43s
Bit rate mode : Constant
Bit rate : 192 Kbps
Channel(s) : 2 channels
Channel positions : Front: L R
Sampling rate : 48.0 KHz
Bit depth : 16 bits
Compression mode : Lossy
Stream size : 43.6 MiB (1%)
Language : Russian
Default : Yes
Forced : No
Audio #2
ID : 3
Format : AC-3
Format/Info : Audio Coding 3
Mode extension : CM (complete main)
Format settings, Endianness : Big
Codec ID : A_AC3
Duration : 31mn 43s
Bit rate mode : Constant
Bit rate : 640 Kbps
Channel(s) : 2 channels
Channel positions : Front: L R
Sampling rate : 48.0 KHz
Bit depth : 16 bits
Compression mode : Lossy
Stream size : 145 MiB (5%)
Default : No
Forced : No
Text
ID : 4
Format : UTF-8
Codec ID : S_TEXT/UTF8
Codec ID/Info : UTF-8 Plain Text
Language : Russian
Default : No
Forced : No
Menu
00:00:00.000 : en:00:57:15.390
00:05:16.566 : en:01:02:32.457
00:09:43.583 : en:01:06:59.474
00:15:37.186 : en:01:12:53.077
00:20:07.706 : en:01:17:23.597
00:23:37.958 : en:01:20:53.849
00:27:36.863 : en:01:24:52.754
00:31:43.360 : en:01:28:59.251

Скриншоты

В парке

В парке / In the Park
Год выпуска: 1915
Продолжительность: 00:14:34
Перевод: Профессиональный (одноголосый закадровый)
Cубтитры: русские
Оригинальная аудиодорожка: музыкальное сопровождение-Режиссер: Чарльз Чаплин / Charles Chaplin
В ролях: Чарльз Чаплин, Леона Андерсон, Билли Армстронг, Ллойд Бэйкон, Бад Джеймисон, Эдна Первиэнс, Эрнест Ван Пелт, Лео Уайт
Описание: Бродяга крадёт дамскую сумочку, но при попытке залезть в карман к Чарли теряет сигареты и спички. Он спасает продавца хот-догов от головореза, но получает на орехи тростью. Когда вор пытается взять у Чарли несколько сосисок, тот забирает сумочку. Сумочка гуляет по рукам…-Тип релиза: BDRip 720p [CtrlHD]
Контейнер: MKV
Видео: x264/AVC, 942x720 at 23.976 fps, 8061 kbps
Аудио#1: Russian: 48 kHz, AC3, 2.0 ch, 192 kbps
Аудио#2: Music: 48 kHz, AC3, 2.0 ch, 640 kbps
Формат субтитров: softsub (SRT)
Сэмпл
MediaInfo
General
Unique ID : 222947603728439918411133510275754802309 (0xA7BA2587E7B89BC1B7A6FE331686BC85)
Complete name : Chaplins Essanay Comedies. rutracker\In The Park.1915.720p.rutracker.mkv
Format : Matroska
Format version : Version 2
File size : 947 MiB
Duration : 14mn 35s
Overall bit rate : 9 073 Kbps
Movie name : Release for RuTracker
Writing application : mkvmerge v5.0.1 ('Es ist Sommer') built on Nov 6 2011 16:23:40
Writing library : libebml v1.2.2 + libmatroska v1.3.0
Video
ID : 1
Format : AVC
Format/Info : Advanced Video Codec
Format profile : High@L4.1
Format settings, CABAC : Yes
Format settings, ReFrames : 12 frames
Codec ID : V_MPEG4/ISO/AVC
Duration : 14mn 35s
Bit rate : 8 061 Kbps
Width : 942 pixels
Height : 720 pixels
Display aspect ratio : 4:3
Frame rate mode : Constant
Frame rate : 23.976 fps
Color space : YUV
Chroma subsampling : 4:2:0
Bit depth : 8 bits
Scan type : Progressive
Bits/(Pixel*Frame) : 0.496
Stream size : 841 MiB (89%)
Title : In The Park.1915.720p.x264-CtrlHD. rutracker
Language : English
Default : Yes
Forced : No
Audio #1
ID : 2
Format : AC-3
Format/Info : Audio Coding 3
Mode extension : CM (complete main)
Format settings, Endianness : Big
Codec ID : A_AC3
Duration : 14mn 35s
Bit rate mode : Constant
Bit rate : 192 Kbps
Channel(s) : 2 channels
Channel positions : Front: L R
Sampling rate : 48.0 KHz
Bit depth : 16 bits
Compression mode : Lossy
Stream size : 20.0 MiB (2%)
Language : Russian
Default : Yes
Forced : No
Audio #2
ID : 3
Format : AC-3
Format/Info : Audio Coding 3
Mode extension : CM (complete main)
Format settings, Endianness : Big
Codec ID : A_AC3
Duration : 14mn 35s
Bit rate mode : Constant
Bit rate : 640 Kbps
Channel(s) : 2 channels
Channel positions : Front: L R
Sampling rate : 48.0 KHz
Bit depth : 16 bits
Compression mode : Lossy
Stream size : 66.8 MiB (7%)
Default : No
Forced : No
Text
ID : 4
Format : UTF-8
Codec ID : S_TEXT/UTF8
Codec ID/Info : UTF-8 Plain Text
Language : Russian
Default : No
Forced : No
Menu
00:00:00.000 : en:01:28:59.251
00:04:15.964 : en:01:33:15.715
00:09:46.461 : en:01:38:46.212
00:14:34.916 : en:01:43:34.667

Скриншоты

Бегство в автомобиле

Бегство в автомобиле / A Jitney Elopement
Год выпуска: 1915
Продолжительность: 00:25:29
Перевод: Профессиональный (одноголосый закадровый)
Cубтитры: русские
Оригинальная аудиодорожка: музыкальное сопровождение-Режиссер: Чарльз Чаплин / Charles Chaplin
В ролях: Чарльз Чаплин, Ллойд Бэйкон, Фред Гудвинс, Бад Джеймисон, Пэдди МакГуайр, Эдна Первиэнс, Карл Стокдейл, Эрнест Ван Пелт, Лео Уайт
Описание: Отец Эдны хочет выдать свою дочь замуж за богатого графа Хлорида де Лима. Чарли, истинная любовь Эдны, в свою очередь выдаёт себя за графа во время обеда.-Тип релиза: BDRip 720p [CtrlHD]
Контейнер: MKV
Видео: x264/AVC, 942x720 at 23.976 fps, 7070 kbps
Аудио#1: Russian: 48 kHz, AC3, 2.0 ch, 192 kbps
Аудио#2: Music: 48 kHz, AC3, 2.0 ch, 640 kbps
Формат субтитров: softsub (SRT)
Сэмпл
MediaInfo
General
Unique ID : 203265675123206264705261718220579414671 (0x98EB8B87A61A7A2590785C4F1646228F)
Complete name : Chaplins Essanay Comedies. rutracker\A Jitney Elopement.1915.720p.rutracker.mkv
Format : Matroska
Format version : Version 2
File size : 1.44 GiB
Duration : 25mn 29s
Overall bit rate : 8 063 Kbps
Movie name : Release for RuTracker
Writing application : mkvmerge v5.0.1 ('Es ist Sommer') built on Nov 6 2011 16:23:40
Writing library : libebml v1.2.2 + libmatroska v1.3.0
Video
ID : 1
Format : AVC
Format/Info : Advanced Video Codec
Format profile : High@L4.1
Format settings, CABAC : Yes
Format settings, ReFrames : 12 frames
Codec ID : V_MPEG4/ISO/AVC
Duration : 25mn 29s
Bit rate : 7 070 Kbps
Width : 942 pixels
Height : 720 pixels
Display aspect ratio : 4:3
Frame rate mode : Constant
Frame rate : 23.976 fps
Color space : YUV
Chroma subsampling : 4:2:0
Bit depth : 8 bits
Scan type : Progressive
Bits/(Pixel*Frame) : 0.435
Stream size : 1.26 GiB (88%)
Title : A.Jitney.Elopement.1915.720p.x264-CtrlHD. rutracker
Language : English
Default : Yes
Forced : No
Audio #1
ID : 2
Format : AC-3
Format/Info : Audio Coding 3
Mode extension : CM (complete main)
Format settings, Endianness : Big
Codec ID : A_AC3
Duration : 25mn 29s
Bit rate mode : Constant
Bit rate : 192 Kbps
Channel(s) : 2 channels
Channel positions : Front: L R
Sampling rate : 48.0 KHz
Bit depth : 16 bits
Compression mode : Lossy
Stream size : 35.0 MiB (2%)
Language : Russian
Default : Yes
Forced : No
Audio #2
ID : 3
Format : AC-3
Format/Info : Audio Coding 3
Mode extension : CM (complete main)
Format settings, Endianness : Big
Codec ID : A_AC3
Duration : 25mn 29s
Bit rate mode : Constant
Bit rate : 640 Kbps
Channel(s) : 2 channels
Channel positions : Front: L R
Sampling rate : 48.0 KHz
Bit depth : 16 bits
Compression mode : Lossy
Stream size : 117 MiB (8%)
Default : No
Forced : No
Text
ID : 4
Format : UTF-8
Codec ID : S_TEXT/UTF8
Codec ID/Info : UTF-8 Plain Text
Language : Russian
Default : No
Forced : No
Menu
00:00:00.000 : en:01:43:34.667
00:04:26.975 : en:01:48:02.142
00:09:37.702 : en:01:53:12.869
00:14:28.201 : en:01:58:03.368
00:19:10.858 : en:02:02:46.025
00:25:29.403 : en:02:09:04.570

Скриншоты

Бродяга

Бродяга / The Tramp
Год выпуска: 1915
Продолжительность: 00:27:13
Перевод: Профессиональный (одноголосый закадровый)
Cубтитры: русские
Оригинальная аудиодорожка: музыкальное сопровождение-Режиссер: Чарльз Чаплин / Charles Chaplin
В ролях: Чарльз Чаплин, Билли Армстронг, Ллойд Бэйкон, Бад Джеймисон, Пэдди МакГуайр, Эдна Первиэнс, Эрнест Ван Пелт, Лео Уайт
Описание: Маленький бродяга нанимается в работники к фермеру и влюбляется в его прекрасную дочь.-Тип релиза: BDRip 720p [CtrlHD]
Контейнер: MKV
Видео: x264/AVC, 942x720 at 23.976 fps, 9651 kbps
Аудио#1: Russian: 48 kHz, AC3, 2.0 ch, 192 kbps
Аудио#2: Music: 48 kHz, AC3, 2.0 ch, 640 kbps
Формат субтитров: softsub (SRT)
Сэмпл
MediaInfo
General
Unique ID : 199132106410320167554442267844133180160 (0x95CF72DB8AE7533AAB52A14A99EAD300)
Complete name : Chaplins Essanay Comedies. rutracker\The Tramp.1915.720p.rutracker.mkv
Format : Matroska
Format version : Version 2
File size : 2.03 GiB
Duration : 27mn 14s
Overall bit rate : 10.7 Mbps
Movie name : Release for RuTracker
Writing application : mkvmerge v5.0.1 ('Es ist Sommer') built on Nov 6 2011 16:23:40
Writing library : libebml v1.2.2 + libmatroska v1.3.0
Video
ID : 1
Format : AVC
Format/Info : Advanced Video Codec
Format profile : High@L4.1
Format settings, CABAC : Yes
Format settings, ReFrames : 12 frames
Codec ID : V_MPEG4/ISO/AVC
Duration : 27mn 14s
Bit rate : 9 651 Kbps
Width : 942 pixels
Height : 720 pixels
Display aspect ratio : 4:3
Frame rate mode : Constant
Frame rate : 23.976 fps
Color space : YUV
Chroma subsampling : 4:2:0
Bit depth : 8 bits
Scan type : Progressive
Bits/(Pixel*Frame) : 0.593
Stream size : 1.84 GiB (90%)
Title : The.Tramp.1915.720p.x264-CtrlHD. rutracker
Language : English
Default : Yes
Forced : No
Audio #1
ID : 2
Format : AC-3
Format/Info : Audio Coding 3
Mode extension : CM (complete main)
Format settings, Endianness : Big
Codec ID : A_AC3
Duration : 27mn 14s
Bit rate mode : Constant
Bit rate : 192 Kbps
Channel(s) : 2 channels
Channel positions : Front: L R
Sampling rate : 48.0 KHz
Bit depth : 16 bits
Compression mode : Lossy
Stream size : 37.4 MiB (2%)
Language : Russian
Default : Yes
Forced : No
Audio #2
ID : 3
Format : AC-3
Format/Info : Audio Coding 3
Mode extension : CM (complete main)
Format settings, Endianness : Big
Codec ID : A_AC3
Duration : 27mn 14s
Bit rate mode : Constant
Bit rate : 640 Kbps
Channel(s) : 2 channels
Channel positions : Front: L R
Sampling rate : 48.0 KHz
Bit depth : 16 bits
Compression mode : Lossy
Stream size : 125 MiB (6%)
Default : No
Forced : No
Text
ID : 4
Format : UTF-8
Codec ID : S_TEXT/UTF8
Codec ID/Info : UTF-8 Plain Text
Language : Russian
Default : No
Forced : No
Menu
00:00:00.000 : en:02:09:04.570
00:03:53.399 : en:02:12:58.470
00:08:54.826 : en:02:17:59.897
00:14:25.948 : en:02:23:31.019
00:19:39.219 : en:02:28:44.290
00:24:09.156 : en:02:33:14.227
00:27:13.673 : en:02:36:18.744

Скриншоты

У моря

У моря / By the Sea
Год выпуска: 1915
Продолжительность: 00:14:45
Перевод: Профессиональный (одноголосый закадровый)
Cубтитры: русские
Оригинальная аудиодорожка: музыкальное сопровождение-Режиссер: Чарльз Чаплин / Charles Chaplin
В ролях: Чарльз Чаплин, Билли Армстронг, Эд Армстронг, Бад Джеймисон, Пэдди МакГуайр, Снуб Поллард, Эдна Первиэнс, Эрнест Ван Пелт
Описание: Море. Пляж. Солнце. Красивые девушки и… маленький бродяга! Пляж уже не может оставаться тихим и спокойным местом, если там появился смешной человечек с тросточкой и в щегольском котелке...-Тип релиза: BDRip 720p [CtrlHD]
Контейнер: MKV
Видео: x264/AVC, 942x720 at 23.976 fps, 7574 kbps
Аудио#1: Russian: 48 kHz, AC3, 2.0 ch, 192 kbps
Аудио#2: Music: 48 kHz, AC3, 2.0 ch, 640 kbps
Формат субтитров: softsub (SRT)
Сэмпл
MediaInfo
General
Unique ID : 206070745571548382948704362425146044694 (0x9B07C82E421C81A8839A3B453D067116)
Complete name : Chaplins Essanay Comedies. rutracker\By The Sea.1915.720p.rutracker.mkv
Format : Matroska
Format version : Version 2
File size : 906 MiB
Duration : 14mn 46s
Overall bit rate : 8 577 Kbps
Movie name : Release for RuTracker
Writing application : mkvmerge v5.0.1 ('Es ist Sommer') built on Nov 6 2011 16:23:40
Writing library : libebml v1.2.2 + libmatroska v1.3.0
Video
ID : 1
Format : AVC
Format/Info : Advanced Video Codec
Format profile : High@L4.1
Format settings, CABAC : Yes
Format settings, ReFrames : 12 frames
Codec ID : V_MPEG4/ISO/AVC
Duration : 14mn 46s
Bit rate : 7 574 Kbps
Width : 942 pixels
Height : 720 pixels
Display aspect ratio : 4:3
Frame rate mode : Constant
Frame rate : 23.976 fps
Color space : YUV
Chroma subsampling : 4:2:0
Bit depth : 8 bits
Scan type : Progressive
Bits/(Pixel*Frame) : 0.466
Stream size : 800 MiB (88%)
Title : By The Sea.1915.720p.x264-CtrlHD. rutracker
Language : English
Default : Yes
Forced : No
Audio #1
ID : 2
Format : AC-3
Format/Info : Audio Coding 3
Mode extension : CM (complete main)
Format settings, Endianness : Big
Codec ID : A_AC3
Duration : 14mn 46s
Bit rate mode : Constant
Bit rate : 192 Kbps
Channel(s) : 2 channels
Channel positions : Front: L R
Sampling rate : 48.0 KHz
Bit depth : 16 bits
Compression mode : Lossy
Stream size : 20.3 MiB (2%)
Language : Russian
Default : Yes
Forced : No
Audio #2
ID : 3
Format : AC-3
Format/Info : Audio Coding 3
Mode extension : CM (complete main)
Format settings, Endianness : Big
Codec ID : A_AC3
Duration : 14mn 46s
Bit rate mode : Constant
Bit rate : 640 Kbps
Channel(s) : 2 channels
Channel positions : Front: L R
Sampling rate : 48.0 KHz
Bit depth : 16 bits
Compression mode : Lossy
Stream size : 67.6 MiB (7%)
Default : No
Forced : No
Text
ID : 4
Format : UTF-8
Codec ID : S_TEXT/UTF8
Codec ID/Info : UTF-8 Plain Text
Language : Russian
Default : No
Forced : No
Menu
00:00:00.000 : en:02:36:18.744
00:04:40.322 : en:02:40:59.567
00:09:27.150 : en:02:45:46.395
00:14:45.676 : en:02:51:04.921

Скриншоты

Его возрождение

Его возрождение / His Regeneration
Год выпуска: 1915
Продолжительность: 00:14:53
Перевод: Профессиональный (одноголосый закадровый)
Cубтитры: русские
Оригинальная аудиодорожка: музыкальное сопровождение-Режиссер: Гилберт М. «Мустанг Билли» Андерсон / Gilbert M. «Broncho Billy» Anderson
В ролях: Гилберт М. «Мустанг Билли» Андерсон, Ли Уиллард, Маргарит Клэйтон, Хэйзел Эпплгейт, Чарльз Чаплин, Ллойд Бэйкон, Роберт Барроуз, Джо Кэссиди, Билл Като, Флоренс Като
Описание: Фильм рассказывает историю двух соперников, одновременно влюбленных в балерину. Одним из них является закоренелый преступник. Первая часть фильма разворачивается в баре и заканчивается борьбой между двумя противниками. Во второй части происходит драматическая сцена убийства и кражи.-Тип релиза: BDRip 720p [CtrlHD]
Контейнер: MKV
Видео: x264/AVC, 942x720 at 23.976 fps, 7005 kbps
Аудио#1: Russian: 48 kHz, AC3, 2.0 ch, 192 kbps
Аудио#2: Music: 48 kHz, AC3, 2.0 ch, 640 kbps
Формат субтитров: softsub (SRT)
Сэмпл
MediaInfo
General
Unique ID : 245312344821619861580561952945329926544 (0xB88D70665DAF104895127DED488FF190)
Complete name : Chaplins Essanay Comedies. rutracker\His Regeneration.1915.720p.rutracker.mkv
Format : Matroska
Format version : Version 2
File size : 852 MiB
Duration : 14mn 53s
Overall bit rate : 7 996 Kbps
Movie name : Release for RuTracker
Writing application : mkvmerge v5.0.1 ('Es ist Sommer') built on Nov 6 2011 16:23:40
Writing library : libebml v1.2.2 + libmatroska v1.3.0
Video
ID : 1
Format : AVC
Format/Info : Advanced Video Codec
Format profile : High@L4.1
Format settings, CABAC : Yes
Format settings, ReFrames : 12 frames
Codec ID : V_MPEG4/ISO/AVC
Duration : 14mn 53s
Bit rate : 7 005 Kbps
Width : 942 pixels
Height : 720 pixels
Display aspect ratio : 4:3
Frame rate mode : Constant
Frame rate : 23.976 fps
Color space : YUV
Chroma subsampling : 4:2:0
Bit depth : 8 bits
Scan type : Progressive
Bits/(Pixel*Frame) : 0.431
Stream size : 746 MiB (88%)
Title : His.Regeneration.1915.720p.x264-CtrlHD. rutracker
Language : English
Default : Yes
Forced : No
Audio #1
ID : 2
Format : AC-3
Format/Info : Audio Coding 3
Mode extension : CM (complete main)
Format settings, Endianness : Big
Codec ID : A_AC3
Duration : 14mn 53s
Bit rate mode : Constant
Bit rate : 192 Kbps
Channel(s) : 2 channels
Channel positions : Front: L R
Sampling rate : 48.0 KHz
Bit depth : 16 bits
Compression mode : Lossy
Stream size : 20.5 MiB (2%)
Language : Russian
Default : Yes
Forced : No
Audio #2
ID : 3
Format : AC-3
Format/Info : Audio Coding 3
Mode extension : CM (complete main)
Format settings, Endianness : Big
Codec ID : A_AC3
Duration : 14mn 53s
Bit rate mode : Constant
Bit rate : 640 Kbps
Channel(s) : 2 channels
Channel positions : Front: L R
Sampling rate : 48.0 KHz
Bit depth : 16 bits
Compression mode : Lossy
Stream size : 68.2 MiB (8%)
Default : No
Forced : No
Text
ID : 4
Format : UTF-8
Codec ID : S_TEXT/UTF8
Codec ID/Info : UTF-8 Plain Text
Language : Russian
Default : No
Forced : No
Menu
00:00:00.000 : en:02:51:04.921
00:03:59.114 : en:02:55:04.536
00:08:36.933 : en:02:59:42.355
00:14:53.142 : en:03:05:58.564

Скриншоты

Работа

Работа / Work
Год выпуска: 1915
Продолжительность: 00:29:02
Перевод: Субтитры
Cубтитры: русские
Оригинальная аудиодорожка: музыкальное сопровождение-Режиссер: Чарльз Чаплин / Charles Chaplin
В ролях: Чарльз Чаплин, Билли Армстронг, Марта Голден, Чарльз Инсли, Пэдди МакГуайр,Эдна Первиэнс, Лео Уайт
Описание: Чарли получает новую работу, но выполняет её очень своеобразно.-Тип релиза: BDRip 720p [CtrlHD]
Контейнер: MKV
Видео: x264/AVC, 942x720 at 23.976 fps, 9882 kbps
Аудио: Music: 48 kHz, AC3, 2.0 ch, 640 kbps
Формат субтитров: softsub (SRT)
Сэмпл
MediaInfo
General
Unique ID : 224597625645418475929565319366676448740 (0xA8F7EDE46F24DA44820FE5BC322A05E4)
Complete name : Chaplins Essanay Comedies. rutracker\Work.1915.720p.rutracker.mkv
Format : Matroska
Format version : Version 2
File size : 2.18 GiB
Duration : 29mn 1s
Overall bit rate : 10.7 Mbps
Movie name : Release for RuTracker
Writing application : mkvmerge v5.0.1 ('Es ist Sommer') built on Nov 6 2011 16:23:40
Writing library : libebml v1.2.2 + libmatroska v1.3.0
Video
ID : 1
Format : AVC
Format/Info : Advanced Video Codec
Format profile : High@L4.1
Format settings, CABAC : Yes
Format settings, ReFrames : 12 frames
Codec ID : V_MPEG4/ISO/AVC
Duration : 29mn 1s
Bit rate : 9 882 Kbps
Width : 942 pixels
Height : 720 pixels
Display aspect ratio : 4:3
Frame rate mode : Constant
Frame rate : 23.976 fps
Color space : YUV
Chroma subsampling : 4:2:0
Bit depth : 8 bits
Scan type : Progressive
Bits/(Pixel*Frame) : 0.608
Stream size : 2.00 GiB (92%)
Title : Work.1915.720p.x264-CtrlHD. rutracker
Language : English
Default : Yes
Forced : No
Audio
ID : 2
Format : AC-3
Format/Info : Audio Coding 3
Mode extension : CM (complete main)
Format settings, Endianness : Big
Codec ID : A_AC3
Duration : 29mn 1s
Bit rate mode : Constant
Bit rate : 640 Kbps
Channel(s) : 2 channels
Channel positions : Front: L R
Sampling rate : 48.0 KHz
Bit depth : 16 bits
Compression mode : Lossy
Stream size : 133 MiB (6%)
Default : Yes
Forced : No
Text
ID : 3
Format : UTF-8
Codec ID : S_TEXT/UTF8
Codec ID/Info : UTF-8 Plain Text
Language : Russian
Default : Yes
Forced : No
Menu
00:00:00.000 : en:03:05:58.564
00:04:44.242 : en:03:10:43.307
00:09:30.528 : en:03:15:29.593
00:15:00.107 : en:03:20:59.172
00:19:57.112 : en:03:25:56.177
00:24:44.107 : en:03:30:43.172

Скриншоты

Женщина

Женщина / A Woman
Год выпуска: 1915
Продолжительность: 00:23:45
Перевод: Профессиональный (одноголосый закадровый)
Cубтитры: русские
Оригинальная аудиодорожка: музыкальное сопровождение-Режиссер: Чарльз Чаплин / Charles Chaplin
В ролях: Чарльз Чаплин, Билли Армстронг, Марта Голден, Чарльз Инсли, Эдна Первиэнс, Джесс Роббинс, Лео Уайт
Описание: Гуляя по парку, Чарли пытается ухаживать за женщиной, однако она оказывается «занята» другим мужчиной, которого Чарли проучил, столкнув в реку. Затем он решает приударить за дочерью, отдыхающей в парке с матерью. Они приводят нового знакомого домой, а вскоре является и отец семейства: им оказывается тот самый мужчина, сброшенный в воду...-Тип релиза: BDRip 720p [CtrlHD]
Контейнер: MKV
Видео: x264/AVC, 942x720 at 23.976 fps, 7245 kbps
Аудио#1: Russian: 48 kHz, AC3, 2.0 ch, 192 kbps
Аудио#2: Music: 48 kHz, AC3, 2.0 ch, 640 kbps
Формат субтитров: softsub (SRT)
Сэмпл
MediaInfo
General
Unique ID : 181618036801455022733547922345512211633 (0x88A25C8EA689E3888AF8D62FDAD514B1)
Complete name : Chaplins Essanay Comedies. rutracker\A Woman.1915.720p.rutracker.mkv
Format : Matroska
Format version : Version 2
File size : 1.37 GiB
Duration : 23mn 45s
Overall bit rate : 8 241 Kbps
Movie name : Release for RuTracker
Writing application : mkvmerge v5.0.1 ('Es ist Sommer') built on Nov 6 2011 16:23:40
Writing library : libebml v1.2.2 + libmatroska v1.3.0
Video
ID : 1
Format : AVC
Format/Info : Advanced Video Codec
Format profile : High@L4.1
Format settings, CABAC : Yes
Format settings, ReFrames : 12 frames
Codec ID : V_MPEG4/ISO/AVC
Duration : 23mn 45s
Bit rate : 7 245 Kbps
Width : 942 pixels
Height : 720 pixels
Display aspect ratio : 4:3
Frame rate mode : Constant
Frame rate : 23.976 fps
Color space : YUV
Chroma subsampling : 4:2:0
Bit depth : 8 bits
Scan type : Progressive
Bits/(Pixel*Frame) : 0.446
Stream size : 1.20 GiB (88%)
Title : A Woman.1915.720p.x264-CtrlHD. rutracker
Writing library : x264 core 148 r2638kMod 7599210
Encoding settings : cabac=1 / ref=12 / deblock=1:-3:-3 / analyse=0x3:0x133 / me=umh / subme=9 / psy=1 / fade_compensate=0.00 / psy_rd=0.90:0.00 / mixed_ref=1 / me_range=32 / chroma_me=1 / trellis=2 / 8x8dct=1 / cqm=0 / deadzone=21,11 / fast_pskip=0 / chroma_qp_offset=-2 / threads=6 / lookahead_threads=1 / sliced_threads=0 / nr=0 / decimate=0 / interlaced=0 / bluray_compat=0 / constrained_intra=0 / fgo=0 / bframes=8 / b_pyramid=2 / b_adapt=2 / b_bias=0 / direct=3 / weightb=1 / open_gop=0 / weightp=2 / keyint=250 / keyint_min=23 / scenecut=40 / intra_refresh=0 / rc=crf / mbtree=0 / crf=18.0000 / qcomp=0.60 / qpmin=0 / qpmax=69 / qpstep=4 / ip_ratio=1.40 / pb_ratio=1.30 / aq=3:0.80
Language : English
Default : Yes
Forced : No
Audio #1
ID : 2
Format : AC-3
Format/Info : Audio Coding 3
Mode extension : CM (complete main)
Format settings, Endianness : Big
Codec ID : A_AC3
Duration : 23mn 45s
Bit rate mode : Constant
Bit rate : 192 Kbps
Channel(s) : 2 channels
Channel positions : Front: L R
Sampling rate : 48.0 KHz
Bit depth : 16 bits
Compression mode : Lossy
Stream size : 32.6 MiB (2%)
Language : Russian
Default : Yes
Forced : No
Audio #2
ID : 3
Format : AC-3
Format/Info : Audio Coding 3
Mode extension : CM (complete main)
Format settings, Endianness : Big
Codec ID : A_AC3
Duration : 23mn 45s
Bit rate mode : Constant
Bit rate : 640 Kbps
Channel(s) : 2 channels
Channel positions : Front: L R
Sampling rate : 48.0 KHz
Bit depth : 16 bits
Compression mode : Lossy
Stream size : 109 MiB (8%)
Default : No
Forced : No
Text
ID : 4
Format : UTF-8
Codec ID : S_TEXT/UTF8
Codec ID/Info : UTF-8 Plain Text
Language : Russian
Default : No
Forced : No
Menu
00:00:00.000 : en:00:00:00.000
00:06:14.749 : en:00:06:14.749
00:11:03.371 : en:00:11:03.371
00:15:48.489 : en:00:15:48.489
00:20:25.850 : en:00:20:25.850
00:23:45.174 : en:00:23:45.174

Скриншоты

Банк

Банк / The Bank
Год выпуска: 1915
Продолжительность: 00:25:50
Перевод: Профессиональный (одноголосый закадровый)
Cубтитры: русские
Оригинальная аудиодорожка: музыкальное сопровождение-Режиссер: Чарльз Чаплин / Charles Chaplin
В ролях: Чарльз Чаплин, Эдна Первиэнс, Билли Армстронг, Карл Стокдейл, Чарльз Инсли, Ллойд Бэйкон, Лоуренс А. Боус, Фрэнк Дж. Коулмэн, Фред Гудвинс, Ли Хилл
Описание: На этот раз Маленький Бродяга работает уборщиком в банке. Он влюблен в прекрасную секретаршу и ненавидит своего босса. Когда в банк врываются грабители, Чарли получает шанс показать свою смелость.-Тип релиза: BDRip 720p [CtrlHD]
Контейнер: MKV
Видео: x264/AVC, 942x720 at 23.976 fps, 7654 kbps
Аудио#1: Russian: 48 kHz, AC3, 2.0 ch, 192 kbps
Аудио#2: Music: 48 kHz, AC3, 2.0 ch, 640 kbps
Формат субтитров: softsub (SRT)
Сэмпл
MediaInfo
General
Unique ID : 194247166779445021667139456136621226713 (0x9222A4BD27EF76068B96D300C6BA7AD9)
Complete name : Chaplins Essanay Comedies. rutracker\The Bank.1915.720p.rutracker.mkv
Format : Matroska
Format version : Version 2
File size : 1.56 GiB
Duration : 25mn 51s
Overall bit rate : 8 658 Kbps
Movie name : Release for RuTracker
Writing application : mkvmerge v5.0.1 ('Es ist Sommer') built on Nov 6 2011 16:23:40
Writing library : libebml v1.2.2 + libmatroska v1.3.0
Video
ID : 1
Format : AVC
Format/Info : Advanced Video Codec
Format profile : High@L4.1
Format settings, CABAC : Yes
Format settings, ReFrames : 12 frames
Codec ID : V_MPEG4/ISO/AVC
Duration : 25mn 51s
Bit rate : 7 654 Kbps
Width : 942 pixels
Height : 720 pixels
Display aspect ratio : 4:3
Frame rate mode : Constant
Frame rate : 23.976 fps
Color space : YUV
Chroma subsampling : 4:2:0
Bit depth : 8 bits
Scan type : Progressive
Bits/(Pixel*Frame) : 0.471
Stream size : 1.38 GiB (88%)
Title : The.Bank.1915.720p.x264-CtrlHD. rutracker
Language : English
Default : Yes
Forced : No
Audio #1
ID : 2
Format : AC-3
Format/Info : Audio Coding 3
Mode extension : CM (complete main)
Format settings, Endianness : Big
Codec ID : A_AC3
Duration : 25mn 51s
Bit rate mode : Constant
Bit rate : 192 Kbps
Channel(s) : 2 channels
Channel positions : Front: L R
Sampling rate : 48.0 KHz
Bit depth : 16 bits
Compression mode : Lossy
Stream size : 35.5 MiB (2%)
Language : Russian
Default : Yes
Forced : No
Audio #2
ID : 3
Format : AC-3
Format/Info : Audio Coding 3
Mode extension : CM (complete main)
Format settings, Endianness : Big
Codec ID : A_AC3
Duration : 25mn 51s
Bit rate mode : Constant
Bit rate : 640 Kbps
Channel(s) : 2 channels
Channel positions : Front: L R
Sampling rate : 48.0 KHz
Bit depth : 16 bits
Compression mode : Lossy
Stream size : 118 MiB (7%)
Default : No
Forced : No
Text
ID : 4
Format : UTF-8
Codec ID : S_TEXT/UTF8
Codec ID/Info : UTF-8 Plain Text
Language : Russian
Default : No
Forced : No
Menu
00:00:00.000 : en:00:23:45.174
00:04:45.410 : en:00:28:31.043
00:10:16.699 : en:00:34:02.332
00:15:06.906 : en:00:38:52.539
00:20:05.537 : en:00:43:51.170
00:25:50.799 : en:00:49:36.432

Скриншоты

Завербованный

Завербованный / Shanghaied
Год выпуска: 1915
Продолжительность: 00:28:08
Перевод: Профессиональный (одноголосый закадровый)
Cубтитры: русские
Оригинальная аудиодорожка: музыкальное сопровождение-Режиссер: Чарльз Чаплин / Charles Chaplin
В ролях: Чарльз Чаплин, Билли Армстронг, Лоуренс А. Боус, Фред Гудвинс, Ли Хилл, Бад Джеймисон, Пэдди МакГуайр, Эдна Первиэнс, Джон Рэнд, Уэсли Рагглз
Описание: Прогуливающийся по городу бродяга получает предложение от нечистого на руку капитана судна завербовать пару-тройку людей в качестве матросов. Подписываясь под заманчивым предложением, герой Чарли даже и не подозревает, что оказывается обманутым. Теперь ему придётся смириться и работать не покладая рук, либо устроить бунт на корабле…-Тип релиза: BDRip 720p [CtrlHD]
Контейнер: MKV
Видео: x264/AVC, 942x720 at 23.976 fps, 5466 kbps
Аудио#1: Russian: 48 kHz, AC3, 2.0 ch, 192 kbps
Аудио#2: Music: 48 kHz, AC3, 2.0 ch, 640 kbps
Формат субтитров: softsub (SRT)
Сэмпл
MediaInfo
General
Unique ID : 206915430617579049108838191237177963331 (0x9BAA765E6B3A8908BEA1C47B47A67343)
Complete name : Chaplins Essanay Comedies. rutracker\Shanghaied.1915.720p.rutracker.mkv
Format : Matroska
Format version : Version 2
File size : 1.26 GiB
Duration : 28mn 9s
Overall bit rate : 6 426 Kbps
Movie name : Release for RuTracker
Writing application : mkvmerge v5.0.1 ('Es ist Sommer') built on Nov 6 2011 16:23:40
Writing library : libebml v1.2.2 + libmatroska v1.3.0
Video
ID : 1
Format : AVC
Format/Info : Advanced Video Codec
Format profile : High@L4.1
Format settings, CABAC : Yes
Format settings, ReFrames : 12 frames
Codec ID : V_MPEG4/ISO/AVC
Duration : 28mn 9s
Bit rate : 5 466 Kbps
Width : 942 pixels
Height : 720 pixels
Display aspect ratio : 4:3
Frame rate mode : Constant
Frame rate : 23.976 fps
Color space : YUV
Chroma subsampling : 4:2:0
Bit depth : 8 bits
Scan type : Progressive
Bits/(Pixel*Frame) : 0.336
Stream size : 1.08 GiB (85%)
Title : Shanghaied.1915.720p.x264-CtrlHD. rutracker
Language : English
Default : Yes
Forced : No
Audio #1
ID : 2
Format : AC-3
Format/Info : Audio Coding 3
Mode extension : CM (complete main)
Format settings, Endianness : Big
Codec ID : A_AC3
Duration : 28mn 9s
Bit rate mode : Constant
Bit rate : 192 Kbps
Channel(s) : 2 channels
Channel positions : Front: L R
Sampling rate : 48.0 KHz
Bit depth : 16 bits
Compression mode : Lossy
Stream size : 38.7 MiB (3%)
Language : Russian
Default : Yes
Forced : No
Audio #2
ID : 3
Format : AC-3
Format/Info : Audio Coding 3
Mode extension : CM (complete main)
Format settings, Endianness : Big
Codec ID : A_AC3
Duration : 28mn 9s
Bit rate mode : Constant
Bit rate : 640 Kbps
Channel(s) : 2 channels
Channel positions : Front: L R
Sampling rate : 48.0 KHz
Bit depth : 16 bits
Compression mode : Lossy
Stream size : 129 MiB (10%)
Default : No
Forced : No
Text
ID : 4
Format : UTF-8
Codec ID : S_TEXT/UTF8
Codec ID/Info : UTF-8 Plain Text
Language : Russian
Default : No
Forced : No
Menu
00:00:00.000 : en:00:49:36.432
00:04:43.241 : en:00:54:20.132
00:09:45.334 : en:00:59:22.225
00:14:50.139 : en:01:04:27.030
00:22:14.958 : en:01:11:51.849
00:28:09.145 : en:01:17:46.036

Скриншоты

Вечер в мюзик-холле

Вечер в мюзик-холле / A Night in the Show
Год выпуска: 1915
Продолжительность: 00:25:04
Перевод: Профессиональный (одноголосый закадровый)
Cубтитры: русские
Оригинальная аудиодорожка: музыкальное сопровождение-Режиссер: Чарльз Чаплин / Charles Chaplin
В ролях: Чарльз Чаплин, Филлис Аллен, Ллойд Бэйкон, Лоуренс А. Боус, Фрэнк Дж. Коулмэн, Фред Гудвинс, Чарльз Инсли, Бад Джеймисон, Джеймс Т. Келли
Описание: Мистер Пест решил сходить в театр. Однако, там его поджидали многочисленные неприятности. Сначала он пробует занять несколько мест в театре, прежде чем вступает в драку с контролером…-Тип релиза: BDRip 720p [CtrlHD]
Контейнер: MKV
Видео: x264/AVC, 942x720 at 23.976 fps, 6784 kbps
Аудио#1: Russian: 48 kHz, AC3, 2.0 ch, 192 kbps
Аудио#2: Music: 48 kHz, AC3, 2.0 ch, 640 kbps
Формат субтитров: softsub (SRT)
Сэмпл
MediaInfo
General
Unique ID : 181252106671568061098705478184208695758 (0x885BE2CF130A6205906D1B9FA6F401CE)
Complete name : Chaplins Essanay Comedies. rutracker\A Night In The Show.1915.720p.rutracker.mkv
Format : Matroska
Format version : Version 2
File size : 1.36 GiB
Duration : 25mn 4s
Overall bit rate : 7 770 Kbps
Movie name : Release for RuTracker
Writing application : mkvmerge v5.0.1 ('Es ist Sommer') built on Nov 6 2011 16:23:40
Writing library : libebml v1.2.2 + libmatroska v1.3.0
Video
ID : 1
Format : AVC
Format/Info : Advanced Video Codec
Format profile : High@L4.1
Format settings, CABAC : Yes
Format settings, ReFrames : 12 frames
Codec ID : V_MPEG4/ISO/AVC
Duration : 25mn 4s
Bit rate : 6 784 Kbps
Width : 942 pixels
Height : 720 pixels
Display aspect ratio : 4:3
Frame rate mode : Constant
Frame rate : 23.976 fps
Color space : YUV
Chroma subsampling : 4:2:0
Bit depth : 8 bits
Scan type : Progressive
Bits/(Pixel*Frame) : 0.417
Stream size : 1.19 GiB (87%)
Title : A.Night.In.The.Show.1915.720p.x264-CtrlHD. rutracker
Language : English
Default : Yes
Forced : No
Audio #1
ID : 2
Format : AC-3
Format/Info : Audio Coding 3
Mode extension : CM (complete main)
Format settings, Endianness : Big
Codec ID : A_AC3
Duration : 25mn 4s
Bit rate mode : Constant
Bit rate : 192 Kbps
Channel(s) : 2 channels
Channel positions : Front: L R
Sampling rate : 48.0 KHz
Bit depth : 16 bits
Compression mode : Lossy
Stream size : 34.4 MiB (2%)
Language : Russian
Default : Yes
Forced : No
Audio #2
ID : 3
Format : AC-3
Format/Info : Audio Coding 3
Mode extension : CM (complete main)
Format settings, Endianness : Big
Codec ID : A_AC3
Duration : 25mn 4s
Bit rate mode : Constant
Bit rate : 640 Kbps
Channel(s) : 2 channels
Channel positions : Front: L R
Sampling rate : 48.0 KHz
Bit depth : 16 bits
Compression mode : Lossy
Stream size : 115 MiB (8%)
Default : No
Forced : No
Text
ID : 4
Format : UTF-8
Codec ID : S_TEXT/UTF8
Codec ID/Info : UTF-8 Plain Text
Language : Russian
Default : No
Forced : No
Menu
00:00:00.000 : en:01:17:46.036
00:07:09.888 : en:01:24:56.341
00:12:54.941 : en:01:30:41.394
00:18:14.469 : en:01:36:00.922
00:25:04.045 : en:01:42:50.498

Скриншоты

Пародия на Кармен

Пародия на Кармен / Burlesque on Carmen
Год выпуска: 1915
Продолжительность: 00:31:50
Перевод: Профессиональный (одноголосый закадровый)
Cубтитры: русские
Оригинальная аудиодорожка: музыкальное сопровождение-Режиссер: Чарльз Чаплин / Charles Chaplin
В ролях: Чарльз Чаплин, Питер Селлерс, Лоуренс А. Боус, Фрэнк Дж. Коулмэн, Джек Хендерсон, Бад Джеймисон, Эдна Первиэнс, Джон Рэнд, Уэсли Рагглз, Бен Тёрпин
Описание: Испанский офицер Дарн Хосьери соблазнен красивой цыганкой Кармен. Эта страсть ведет его к немилости и падению.-Тип релиза: BDRip 720p [CtrlHD]
Контейнер: MKV
Видео: x264/AVC, 942x720 at 23.976 fps, 11.2 Mbps
Аудио#1: Russian: 48 kHz, AC3, 2.0 ch, 192 kbps
Аудио#2: Music: 48 kHz, AC3, 2.0 ch, 640 kbps
Формат субтитров: softsub (SRT)
Сэмпл
MediaInfo
General
Unique ID : 173898036405675263795111540416056005608 (0x82D38B26A4672BF5AC83AE5AF20A13E8)
Complete name : Chaplins Essanay Comedies. rutracker\A Burlesque On Carmen.1915.720p.rutracker.mkv
Format : Matroska
Format version : Version 2
File size : 2.73 GiB
Duration : 31mn 51s
Overall bit rate : 12.3 Mbps
Movie name : Release for RuTracker
Writing application : mkvmerge v5.0.1 ('Es ist Sommer') built on Nov 6 2011 16:23:40
Writing library : libebml v1.2.2 + libmatroska v1.3.0
Video
ID : 1
Format : AVC
Format/Info : Advanced Video Codec
Format profile : High@L4.1
Format settings, CABAC : Yes
Format settings, ReFrames : 12 frames
Codec ID : V_MPEG4/ISO/AVC
Duration : 31mn 51s
Bit rate : 11.2 Mbps
Width : 942 pixels
Height : 720 pixels
Display aspect ratio : 4:3
Frame rate mode : Constant
Frame rate : 23.976 fps
Color space : YUV
Chroma subsampling : 4:2:0
Bit depth : 8 bits
Scan type : Progressive
Bits/(Pixel*Frame) : 0.688
Stream size : 2.49 GiB (91%)
Title : A.Burlesque.On.Carmen.1915.720p.x264-CtrlHD. rutracker
Language : English
Default : Yes
Forced : No
Audio #1
ID : 2
Format : AC-3
Format/Info : Audio Coding 3
Mode extension : CM (complete main)
Format settings, Endianness : Big
Codec ID : A_AC3
Duration : 31mn 51s
Bit rate mode : Constant
Bit rate : 192 Kbps
Channel(s) : 2 channels
Channel positions : Front: L R
Sampling rate : 48.0 KHz
Bit depth : 16 bits
Compression mode : Lossy
Stream size : 43.7 MiB (2%)
Language : Russian
Default : Yes
Forced : No
Audio #2
ID : 3
Format : AC-3
Format/Info : Audio Coding 3
Mode extension : CM (complete main)
Format settings, Endianness : Big
Codec ID : A_AC3
Duration : 31mn 51s
Bit rate mode : Constant
Bit rate : 640 Kbps
Channel(s) : 2 channels
Channel positions : Front: L R
Sampling rate : 48.0 KHz
Bit depth : 16 bits
Compression mode : Lossy
Stream size : 146 MiB (5%)
Default : No
Forced : No
Text
ID : 4
Format : UTF-8
Codec ID : S_TEXT/UTF8
Codec ID/Info : UTF-8 Plain Text
Language : Russian
Default : No
Forced : No
Menu
00:00:00.000 : en:01:42:50.498
00:04:09.958 : en:01:47:00.914
00:09:17.808 : en:01:52:08.764
00:15:08.491 : en:01:57:59.447
00:20:36.778 : en:02:03:27.734
00:25:46.629 : en:02:08:37.585
00:31:50.993 : en:02:14:41.949

Скриншоты

Полиция

Полиция / Police
Год выпуска: 1916
Продолжительность: 00:26:28
Перевод: Профессиональный (одноголосый закадровый)
Cубтитры: русские
Оригинальная аудиодорожка: музыкальное сопровождение-Режиссер: Чарльз Чаплин / Charles Chaplin
В ролях: Чарльз Чаплин, Эдна Первиэнс, Уэсли Рагглз, Джон Рэнд, Билли Армстронг, Фред Гудвинс, Бад Джеймисон, Джеймс Т. Келли, Пэдди МакГуайр
Описание: Чарли выходит из тюрьмы и сразу попадает в лапы проповедника, который похищает его последние деньги. Бывший заключенный не может купить еды, и даже ночлежка оказывается ему не по карману. Вскоре он встречает на улице своего бывшего сокамерника, который предлагает ему ограбить один дом...-Тип релиза: BDRip 720p [CtrlHD]
Контейнер: MKV
Видео: x264/AVC, 942x720 at 23.976 fps, 8699 kbps
Аудио#1: Russian: 48 kHz, AC3, 2.0 ch, 192 kbps
Аудио#2: Music: 48 kHz, AC3, 2.0 ch, 640 kbps
Формат субтитров: softsub (SRT)
Сэмпл
MediaInfo
General
Unique ID : 197007777119614749697853864880284966130 (0x943651564E79475D8F08837702F51CF2)
Complete name : Chaplins Essanay Comedies. rutracker\Police.1915.720p.rutracker.mkv
Format : Matroska
Format version : Version 2
File size : 1.80 GiB
Duration : 26mn 27s
Overall bit rate : 9 725 Kbps
Movie name : Release for RuTracker
Writing application : mkvmerge v5.0.1 ('Es ist Sommer') built on Nov 6 2011 16:23:40
Writing library : libebml v1.2.2 + libmatroska v1.3.0
Video
ID : 1
Format : AVC
Format/Info : Advanced Video Codec
Format profile : High@L4.1
Format settings, CABAC : Yes
Format settings, ReFrames : 12 frames
Codec ID : V_MPEG4/ISO/AVC
Duration : 26mn 27s
Bit rate : 8 699 Kbps
Width : 942 pixels
Height : 720 pixels
Display aspect ratio : 4:3
Frame rate mode : Constant
Frame rate : 23.976 fps
Color space : YUV
Chroma subsampling : 4:2:0
Bit depth : 8 bits
Scan type : Progressive
Bits/(Pixel*Frame) : 0.535
Stream size : 1.61 GiB (89%)
Title : Police.1915.720p.x264-CtrlHD. rutracker
Language : English
Default : Yes
Forced : No
Audio #1
ID : 2
Format : AC-3
Format/Info : Audio Coding 3
Mode extension : CM (complete main)
Format settings, Endianness : Big
Codec ID : A_AC3
Duration : 26mn 27s
Bit rate mode : Constant
Bit rate : 192 Kbps
Channel(s) : 2 channels
Channel positions : Front: L R
Sampling rate : 48.0 KHz
Bit depth : 16 bits
Compression mode : Lossy
Stream size : 36.3 MiB (2%)
Language : Russian
Default : Yes
Forced : No
Audio #2
ID : 3
Format : AC-3
Format/Info : Audio Coding 3
Mode extension : CM (complete main)
Format settings, Endianness : Big
Codec ID : A_AC3
Duration : 26mn 27s
Bit rate mode : Constant
Bit rate : 640 Kbps
Channel(s) : 2 channels
Channel positions : Front: L R
Sampling rate : 48.0 KHz
Bit depth : 16 bits
Compression mode : Lossy
Stream size : 121 MiB (7%)
Default : No
Forced : No
Text
ID : 4
Format : UTF-8
Codec ID : S_TEXT/UTF8
Codec ID/Info : UTF-8 Plain Text
Language : Russian
Default : No
Forced : No
Menu
00:00:00.000 : en:02:14:41.949
00:05:50.308 : en:02:20:32.716
00:10:57.448 : en:02:25:39.856
00:17:03.063 : en:02:31:45.471

Скриншоты

Дополнительно

- Перевод с DVD изданий от "Мастер Тэйп".
- После кодирования рипы разделены на отдельные короткометражки. Настройки кодирования в mediainfo к фильмам "Его новая работа" или "Женщина" относятся ко всем.


Показать сообщения:    

Текущее время: 15-Дек 06:41

Часовой пояс: UTC ± 0


Вы не можете начинать темы
Вы не можете отвечать на сообщения
Вы не можете редактировать свои сообщения
Вы не можете удалять свои сообщения
Вы не можете голосовать в опросах
Вы не можете прикреплять файлы к сообщениям
Вы не можете скачивать файлы

!ВНИМАНИЕ!
Сайт не предоставляет электронные версии произведений, а занимается лишь коллекционированием и каталогизацией ссылок, присылаемых и публикуемых на форуме нашими читателями. Если вы являетесь правообладателем какого-либо представленного материала и не желаете, чтобы ссылка на него находилась в нашем каталоге, свяжитесь с нами, и мы незамедлительно удалим ее. Файлы для обмена на трекере предоставлены пользователями сайта, и администрация не несет ответственности за их содержание. Просьба не заливать файлы, защищенные авторскими правами, а также файлы нелегального содержания!