Чарли Варрик / Charley Varrick (Дон Сигел / Don Siegel) [1973, США, боевик, триллер, драма, криминал, BDRip 720p] AVO (В. Горчаков) + DVO + Original Eng + Sub Eng :: Ивановский Торрент трекер
Важное объявление!
У Нас Все раздачи мультитрекерные, при нуле пиров в релизах, можете смело вставать на закачку!
Статистика раздачи
Размер:     |    Зарегистрирован:     |    Скачан:     |   
Нет
 
     
 
 
Автор Сообщение

HUNTER

Стаж:
4 года 11 месяцев
Сообщений:
66052

Репутация: 101

[+] [-]
Вне форума [Профиль] [ЛС]

Чарли ВаррикCharley Varrick-
-Страна: США
Жанр: боевик, триллер, драма, криминал
Год выпуска: 1973
Продолжительность: 01:50:32-Перевод: Авторский (одноголосый закадровый) В. Горчаков
Перевод: Профессиональный (двухголосый закадровый)
Cубтитры: Английские
Оригинальная аудиодорожка: английская
Режиссер: Дон Сигел / Don Siegel-В ролях:Уолтер Мэттау, Джо Дон Бейкер, Фелиция Фарр, Эндрю Робинсон, Шири Норт, Норман Фелл, Бенсон Фонг, Вудроу Парфри, Уильям Шэллерт, Джэклин Скотт, Марджори Беннетт, Руди Диас, Колби Честер, Чарли Бриггс, Присцилла Гарсиа, Чарльз Мэттоу, Хоуп Саммерс, Моника Льюис, Крэйг Р. Бэксли, Дон Сигел, Джон Вернон-Описание: Повседневностью Чарли Варрика были банки провинциальных закутков, которые он обчищал с неизменной изящностью. Но однажды он сорвал куш не по зубам. В банке небольшого городка свои наличные отмывала мафия, и теперь по следам Чарли идет киллер Молли, мерзавец и расист. А так как на трусливого напарника Варрику рассчитывать не приходится, ему срочно нужно делать ноги одному…-Качество видео: BDRip720p
Рип от SbR
Исходник: Charley Varrick (1973) 1080p BD-Remux (thx Прагматик)
Формат видео: MKV-Цитата:
Цитата:

• Сохранены оригинальные чаптеры как на Blu-Ray.
• Дорога №1 получена наложением чистого голоса на центр декодированного DTS-HD MA оригинала.
• Сборка дорожки с переводом Горчакова Прагматик
За перевод Горчакова спасибо трекеру Е-180 и пользователям: Kastro idalgo zeleniy Nadoelo uchitel538 Диммон motel denis_mgn_1987 Ochkarik1 Larry Guyver Nick Neon Эдуард xerman13 jorn2 olegsoleg luka69 каак bla_ AlBeOne фёдор александрович nolya boroda masta Tio
-Видео: 1280x694, 23.976 fps, x264@L4.1, ~6560 kbps avg
Аудио№1: 48 kHz, AC3, 2/0 (L,R) ch, ~192.00 kbps avg |В.Горчаков|
Аудио№2: 48 kHz/16-bit, FLAC 2.0, ~278.00 kbps avg |В.Горчаков|
Аудио№3: 48 kHz, AC3, 2/0 (L,R) ch, ~192.00 kbps avg |двухголосый закадровый|
Аудио№4: 48 kHz/16-bit, FLAC 2.0, ~248.00 kbps avg |Оригинал|
Субтитры: Английские (UTF-8)-Сэмпл: https://yadi.sk/i/PACR-AiOgAfsM-

MediaInfo

General
Unique ID : 247754745061322329555839285359005625097 (0xBA63D40763D7D00C828B745D64236B09)
Complete name : W:\Charley.Varrick.1973.720p.mkv
Format : Matroska
Format version : Version 4 / Version 2
File size : 5.77 GiB
Duration : 1h 50mn
Overall bit rate mode : Variable
Overall bit rate : 7 474 Kbps
Encoded date : UTC 2015-04-22 11:20:42
Writing application : mkvmerge v7.8.0 ('River Man') 32bit built on Mar 27 2015 16:18:02
Writing library : libebml v1.3.1 + libmatroska v1.4.2
Attachements : cover.jpg
_STATISTICS_WRITING_APP : mkvmerge v7.8.0 ('River Man') 32bit built on Mar 27 2015 16:18:02
_STATISTICS_WRITING_DATE_UT : 2015-04-22 11:20:42
_STATISTICS_TAGS : BPS DURATION NUMBER_OF_FRAMES NUMBER_OF_BYTES
DURATION : 01:50:32.928000000
NUMBER_OF_FRAMES : 207279
NUMBER_OF_BYTES : 159190272
Video
ID : 1
Format : AVC
Format/Info : Advanced Video Codec
Format profile : High@L4.1
Format settings, CABAC : Yes
Format settings, ReFrames : 9 frames
Codec ID : V_MPEG4/ISO/AVC
Duration : 1h 50mn
Width : 1 280 pixels
Height : 694 pixels
Display aspect ratio : 1.85:1
Frame rate mode : Constant
Frame rate : 23.976 fps
Color space : YUV
Chroma subsampling : 4:2:0
Bit depth : 8 bits
Scan type : Progressive
Writing library : x264 core 146 r0+2586 e393126 t_mod_Custom [8-bit@all X86_64]
Encoding settings : cabac=1 / ref=9 / deblock=1:-3:-3 / analyse=0x3:0x133 / me=esa / subme=10 / psy=1 / fade_compensate=0.00 / psy_rd=1.00:0.05 / mixed_ref=1 / me_range=24 / chroma_me=1 / trellis=2 / 8x8dct=1 / cqm=0 / deadzone=21,11 / fast_pskip=0 / chroma_qp_offset=-3 / threads=6 / lookahead_threads=1 / sliced_threads=0 / nr=0 / decimate=1 / interlaced=0 / bluray_compat=0 / constrained_intra=0 / fgo=0 / bframes=9 / b_pyramid=2 / b_adapt=2 / b_bias=0 / direct=3 / weightb=1 / open_gop=0 / weightp=2 / keyint=250 / keyint_min=23 / scenecut=40 / intra_refresh=0 / rc_lookahead=60 / rc=crf / mbtree=0 / crf=17.5000 / qcomp=0.60 / qpmin=0:0:0 / qpmax=69:69:69 / qpstep=4 / vbv_maxrate=62500 / vbv_bufsize=78125 / crf_max=0.0 / nal_hrd=none / filler=0 / ip_ratio=1.40 / pb_ratio=1.30 / aq=1:0.80 / aq-sensitivity=10.00 / aq-factor=1.00:1.00:1.00 / aq2=0 / aq3=0
Language : English
Default : Yes
Forced : No
Color range : Limited
Color primaries : BT.709
Transfer characteristics : BT.709
Matrix coefficients : BT.709
_STATISTICS_WRITING_APP : mkvmerge v7.8.0 ('River Man') 32bit built on Mar 27 2015 16:18:02
_STATISTICS_WRITING_DATE_UT : 2015-04-22 11:20:42
_STATISTICS_TAGS : BPS DURATION NUMBER_OF_FRAMES NUMBER_OF_BYTES
DURATION : 01:50:32.877000000
NUMBER_OF_FRAMES : 159030
NUMBER_OF_BYTES : 5439096482
Audio #1
ID : 2
Format : AC-3
Format/Info : Audio Coding 3
Mode extension : CM (complete main)
Format settings, Endianness : Big
Codec ID : A_AC3
Duration : 1h 50mn
Bit rate mode : Constant
Bit rate : 192 Kbps
Channel(s) : 2 channels
Channel positions : Front: L R
Sampling rate : 48.0 KHz
Bit depth : 16 bits
Compression mode : Lossy
Stream size : 152 MiB (3%)
Title : Одноголосый закадровый, В.Горчаков
Language : Russian
Default : Yes
Forced : No
Audio #2
ID : 3
Format : FLAC
Format/Info : Free Lossless Audio Codec
Codec ID : A_FLAC
Duration : 1h 50mn
Bit rate mode : Variable
Channel(s) : 2 channels
Channel positions : Front: L R
Sampling rate : 48.0 KHz
Bit depth : 16 bits
Title : Одноголосый закадровый, В.Горчаков
Writing library : libFLAC 1.2.1 (UTC 2007-09-17)
Language : Russian
Default : No
Forced : No
Audio #3
ID : 4
Format : AC-3
Format/Info : Audio Coding 3
Mode extension : CM (complete main)
Format settings, Endianness : Big
Codec ID : A_AC3
Duration : 1h 50mn
Bit rate mode : Constant
Bit rate : 192 Kbps
Channel(s) : 2 channels
Channel positions : Front: L R
Sampling rate : 48.0 KHz
Bit depth : 16 bits
Compression mode : Lossy
Stream size : 152 MiB (3%)
Title : Двухголосый закадровый
Language : Russian
Default : No
Forced : No
Audio #4
ID : 5
Format : FLAC
Format/Info : Free Lossless Audio Codec
Codec ID : A_FLAC
Duration : 1h 50mn
Bit rate mode : Variable
Channel(s) : 2 channels
Sampling rate : 48.0 KHz
Bit depth : 16 bits
Writing library : libFLAC 1.2.1 (UTC 2007-09-17)
Language : English
Default : No
Forced : No
Text
ID : 6
Format : UTF-8
Codec ID : S_TEXT/UTF8
Codec ID/Info : UTF-8 Plain Text
Language : English
Default : No
Forced : No
Menu
00:00:00.000 : en:00:00:00.000
00:11:50.918 : en:00:11:50.918
00:21:26.785 : en:00:21:26.785
00:28:06.351 : en:00:28:06.351
00:35:54.402 : en:00:35:54.402
00:42:06.981 : en:00:42:06.981
00:50:23.893 : en:00:50:23.893
00:54:16.585 : en:00:54:16.585
00:59:27.771 : en:00:59:27.771
01:03:05.405 : en:01:03:05.405
01:07:38.762 : en:01:07:38.762
01:12:58.497 : en:01:12:58.497
01:20:43.587 : en:01:20:43.587
01:25:17.944 : en:01:25:17.944
01:30:25.962 : en:01:30:25.962
01:39:02.435 : en:01:39:02.435

Скриншоты


_________________
Показать сообщения:    

Текущее время: Сегодня 15:49

Часовой пояс: GMT



Вы не можете начинать темы
Вы не можете отвечать на сообщения
Вы не можете редактировать свои сообщения
Вы не можете удалять свои сообщения
Вы не можете голосовать в опросах
Вы не можете прикреплять файлы к сообщениям
Вы не можете скачивать файлы