Важное объявление!
У Нас Все раздачи мультитрекерные, при нуле пиров в релизах, можете смело вставать на закачку!
 
Автор Сообщение

HUNTER

Стаж:
4 года 8 месяцев
Сообщений:
61998

Репутация: 101

[+] [-]
Вне форума [Профиль] [ЛС]

-
Год выпуска: 2014
Страна: Япония
Жанр: фэнтези, романтика
Продолжительность: ТВ-сериал, 12 эп. по 24 мин.
Выпуск: c 10.04.2014 по 26.06.2014-Перевод:

  • русские субтитры от Timecraft (полные/вспомогательные)
    редактор/оформление: AleX_MytH, переводчик/перевод песен: Nachtwandler
    -Режиссер: Масуй Сойти
    Студия: BONES-Описание:
    Как уже бывало не раз, дрязги и предательство развалили некогда могучую, а ныне одряхлевшую империю. Алчные соседи, активно поучаствовавшие в развале, растащили территорию поверженного врага на куски, а группа убийц, толпой набросившихся на последнего императора, так же поступила с его телом. Кстати, убийцы теперь зовутся Восемь героев, ведь в мире меча и волшебства даже частица тела великого мага-правителя – могущественный талисман, дающий силу хозяину. После этого шесть победивших наций долго разбирались между собой на руинах, но постепенно был создан единый Совет и настал долгожданный мир.
    Тору Акура вместе с названной сестрой Акари – наемники-диверсанты, ныне сидящие без работы. Жить негде, впору подаваться в бандиты, и тут Тору встретил в лесу белокурую девочку, что тащила за собой солидный гроб. В ходе совместных приключений выяснилось, что в гробу лежит снайперское магоружье, а сама Чайка – принцесса, дочь последнего императора, которая хочет отобрать у Восьми героев останки своего отца и достойно похоронить его. Вот теперь Тору с Акари обрели достойную цель и решили помочь новой подруге. Хорошо бы только разжиревшие «герои» и их войска мешали, так еще самозваных Чаек налетело видимо-невидимо. Пора вводить конвенцию «детей императора Артура»!
    © Hollow, World Art
    Название сериала содержит довольно сложную игру слов. Hitsugi по-японски просто «гроб», но здесь это слово записано другими кандзи, значащими «гроб» и «принцесса». Кроме того, hitsugi – это иносказательное обозначение императорского трона, на который претендует героиня. Имя Чайка взято японцами из известной пьесы Чехова, ее фамилия Трабант (спутник, луна) – из немецкого, а идея с гробом – из итальянского спагетти-вестерна «Джанго».-Информационные ссылки: AniDB || World Art || MAL-Качество: BDRip
    Энкод: Winter - RG Pantheon
    Тип видео: без хардсаба, без линковки
    Формат: mkv
    Видео: x264 (Hi10p), 1280x720, ~3600 Kbps, 23.976 fps
    Аудио JAP: Vorbis, 48000Hz, ~256 Kbps, 2ch
    Аудио RUS 1-2: AC3, 48000Hz, ~192 Kbps, 2ch (внешними файлами)-

    Список озвучек в раздаче
  • двухголосая (муж./жен.) от JAM & Trina_D (AniDub)
  • двухголосая (муж./жен.) от Lupin & Silv (Anilibria)
    Список эпизодов
    01. The Girl Who Bears the Coffin
    02. The Lazy Man`s Choice
    СкриншотыОтличия от других раздачПодробные тех. данные
    Общее
    Уникальный идентификатор : 223409006325279695255036576187417422592 (0xA813026F6DB817BB8E7A6CB0E23CEB00)
    Полное имя : Z:\Anime\720p\Hitsugi no Chaika [BD] [720p]\[Winter] Hitsugi no Chaika 01 [BDrip 1280x720 x264 Vorbis].mkv
    Формат : Matroska
    Версия формата : Version 2
    Размер файла : 661 Мбайт
    Продолжительность : 23 м.
    Режим общего битрейта : Переменный
    Общий поток : 3901 Кбит/сек
    Дата кодирования : UTC 2014-07-12 16:39:02
    Программа кодирования : mkvmerge v2.9.8 ('C'est le bon') built on Aug 13 2009 12:49:06
    Библиотека кодирования : libebml v0.7.7 + libmatroska v0.8.1
    Видео
    Идентификатор : 1
    Формат : AVC
    Формат/Информация : Advanced Video Codec
    Профиль формата : High 10@L4.1
    Параметр CABAC формата : Да
    Параметр ReFrames формата : 9 кадров
    Идентификатор кодека : V_MPEG4/ISO/AVC
    Продолжительность : 23 м.
    Битрейт : 3568 Кбит/сек
    Ширина : 1280 пикселей
    Высота : 720 пикселей
    Соотношение сторон : 16:9
    Режим частоты кадров : Постоянный
    Частота кадров : 23,976 кадра/сек
    Цветовое пространство : YUV
    Субдискретизация насыщенности : 4:2:0
    Битовая глубина : 10 бит
    Тип развёртки : Прогрессивная
    Бит/(Пиксели*Кадры) : 0.161
    Размер потока : 605 Мбайт (91%)
    Библиотека кодирования : x264 core 132 r2309 3b1f1f7
    Настройки программы : cabac=1 / ref=9 / deblock=1:-2:-2 / analyse=0x3:0x133 / me=umh / subme=9 / psy=1 / psy_rd=0.90:0.00 / mixed_ref=1 / me_range=24 / chroma_me=1 / trellis=2 / 8x8dct=1 / cqm=0 / deadzone=21,11 / fast_pskip=1 / chroma_qp_offset=-2 / threads=12 / lookahead_threads=2 / sliced_threads=0 / nr=0 / decimate=0 / interlaced=0 / bluray_compat=0 / constrained_intra=0 / bframes=8 / b_pyramid=2 / b_adapt=2 / b_bias=0 / direct=1 / weightb=1 / open_gop=0 / weightp=2 / keyint=250 / keyint_min=23 / scenecut=40 / intra_refresh=0 / rc=crf / mbtree=0 / crf=15.8 / qcomp=0.70 / qpmin=9 / qpmax=40 / qpstep=4 / ip_ratio=1.40 / pb_ratio=1.30 / aq=1:0.90 / zones=0,2181,b=1.2
    Default : Нет
    Forced : Нет
    Аудио
    Идентификатор : 2
    Формат : Vorbis
    Параметр Floor формата : 1
    Идентификатор кодека : A_VORBIS
    Продолжительность : 23 м.
    Вид битрейта : Переменный
    Битрейт : 256 Кбит/сек
    Каналы : 2 канала
    Частота : 48,0 КГц
    Метод сжатия : С потерями
    Размер потока : 43,4 Мбайт (7%)
    Библиотека кодирования : libVorbis (Schaufenugget) (20101101 (Schaufenugget))
    Язык : Japanese
    Default : Да
    Forced : Нет
    - -Информация о релизе
  • Выбор видео, перевода, озвучки, а также типа сборки материала осуществляется релизером и не подлежит обсуждению. Если вы считаете, что раздаваемый материал противоречит правилам раздела "Аниме" rutracker.org, сообщите об этом одному из модераторов раздела.
  • В случае появления нового материала или же лучшего по качеству материала релизер оставляет за собой право обновить раздачу. В этом случае вам необходимо ознакомиться с изменениями (добавлениями) и перекачать торрент.
  • Данный релиз предназначен для просмотра на ПК. Воспроизведение на иных проигрывателях не гарантируется. Для просмотра рекомендуется Media Player Classic с установленным пакетом кодеков K-Lite.
  • Данный релиз содержит 10-битное видео (Hi10p). Для корректного воспроизведения обязательно используйте кодеки, поддерживающие 10-битное видео.
    Обсудить частные случаи проблем с воспроизведением и получить дополнительную информацию можно здесь.

  • Данный релиз предназначен для просмотра с внешними субтитрами и внешними звуковыми дорожками.
  • Для просмотра с внешней звуковой дорожкой нужно:
    перекинуть файлы .mka из папки "RUS Sound [<автор(ы) озвучки>]" в одну папку с видео и переключить звуковую дорожку в плеере при просмотре. Как это сделать в разных плеерах подробно описано здесь.

  • Для просмотра с субтитрами нужно:
    перекинуть файлы .ass из папки "RUS Subtitles [<автор(ы) перевода>]" в одну папку с видео - плеер подгрузит их автоматически при открытии видео.

  • Если у вас возникли проблемы с просмотром, не связанные с описанным выше, сообщите о них автору раздачи посредством сообщения в теме или ЛС Aglenn.

  • _________________
    Показать сообщения:    

    Текущее время: Сегодня 02:35

    Часовой пояс: GMT



    Вы не можете начинать темы
    Вы не можете отвечать на сообщения
    Вы не можете редактировать свои сообщения
    Вы не можете удалять свои сообщения
    Вы не можете голосовать в опросах
    Вы не можете прикреплять файлы к сообщениям
    Вы не можете скачивать файлы
    Наши партнеры: интернет магазин Ивановского трикотажа textilla.ru