Важное объявление!
У Нас Все раздачи мультитрекерные, при нуле пиров в релизах, можете смело вставать на закачку!
 
Автор Сообщение

HUNTER

Стаж:
4 года 8 месяцев
Сообщений:
61998

Репутация: 101

[+] [-]
Вне форума [Профиль] [ЛС]

Чайка — принцесса с гробом / Hitsugi no Chaika
Страна: Япония
Год выпуска: 2014 г.
Жанр: Приключения
Продолжительность: 12 эп. по 25 мин
русские субтитры: внешним файлом-Перевод: AniPanic FanSub Team
Перевод: ItseKsee
Редактура: Endil
Режиссер: Масуй Сойти
Студия:
Описание: В прошлом существовала империя Газу. Империя обладала беспрецедентной силой, но говорят что это была не сила империи, а сила ее императора, Артура Газу. Он занимался передовыми исследованиями в области магии, плоды которых используются и поныне и в течение трехсот лет держал весь континент под своим контролем. Однако, в итоге он был побежден и его тело было разделено на множество частей ставших могущественными магическими артефактами. Каждый из участвующих в битве героев получил по одной части тела побежденного. Хотя империя Газу была уничтожена и на континенте был достигнут мир, влияние империи все еще велико. По миру все еще рассеяны сторонники Газу, а некоторые даже поклоняются дочери Артура, Чайке Трабант надеясь возродить империю. И хотя война и окончилась, многие люди продолжают работать на военную машину.
Главный персонаж, Тору Акура был обучен как диверсант. Но теперь его специальность не нужна и он круглыми сутками бездельничает. Его сестра Акари заставляет брата найти работу, в результате чего Тору натыкается на Чайку и нанимается к ней. Вскоре он узнает что его нанимательница — дочь Артура, а цель ее путешествия — собрать останки отца и похоронить их. Также выясняется что все считают что само существование Чайки угрожает гражданской войной. Однако, это не пугает Тору и он продолжает путешествовать с Чайкой.
Равка: Zero-Raws
Хардсаб: Отсутствует
Качество: HDTVRip
Формат видео: mp4
Видео: AVC, 8 bits, 1280x720; 23.976 fps; 1789 Kbps, (16:9)
Аудио:
1. JP - AAC, 48.0 KHz, 253 kbps, 2 ch

Список эпизодов

01.

Скриншоты

MediaInfo

Общее
Полное имя : D:\[Zero-Raws]\[Zero-Raws] Hitsugi no Chaika\[Zero-Raws] Hitsugi no Chaika - 01 (SUN 1280x720 x264 AAC).mp4
Формат : MPEG-4
Профиль формата : Base Media
Идентификатор кодека : isom
Размер файла : 351 Мбайт
Продолжительность : 23 м.
Режим общего битрейта : Переменный
Общий поток : 2045 Кбит/сек
Дата кодирования : UTC 2014-04-10 00:25:10
Дата пометки : UTC 2014-04-10 00:25:10
Видео
Идентификатор : 1
Формат : AVC
Формат/Информация : Advanced Video Codec
Профиль формата : High@L3.1
Параметр CABAC формата : Да
Параметр ReFrames формата : 4 кадра
Идентификатор кодека : avc1
Идентификатор кодека/Информация : Advanced Video Coding
Продолжительность : 23 м.
Битрейт : 1789 Кбит/сек
Максимальный битрейт : 10,9 Мбит/сек
Ширина : 1280 пикселей
Высота : 720 пикселей
Соотношение сторон : 16:9
Режим частоты кадров : Постоянный
Частота кадров : 23,976 кадра/сек
Цветовое пространство : YUV
Субдискретизация насыщенности : 4:2:0
Битовая глубина : 8 бит
Тип развёртки : Прогрессивная
Бит/(Пиксели*Кадры) : 0.081
Размер потока : 307 Мбайт (87%)
Библиотека кодирования : x264 core 133 r2334 a3ac64b
Настройки программы : cabac=1 / ref=3 / deblock=1:0:0 / analyse=0x3:0x113 / me=hex / subme=7 / psy=1 / psy_rd=1.00:0.00 / mixed_ref=1 / me_range=16 / chroma_me=1 / trellis=1 / 8x8dct=1 / cqm=0 / deadzone=21,11 / fast_pskip=1 / chroma_qp_offset=-2 / threads=12 / lookahead_threads=2 / sliced_threads=0 / nr=0 / decimate=1 / interlaced=0 / bluray_compat=0 / constrained_intra=0 / bframes=3 / b_pyramid=2 / b_adapt=1 / b_bias=0 / direct=1 / weightb=1 / open_gop=0 / weightp=2 / keyint=250 / keyint_min=23 / scenecut=40 / intra_refresh=0 / rc_lookahead=40 / rc=crf / mbtree=1 / crf=19.5 / qcomp=0.60 / qpmin=0 / qpmax=69 / qpstep=4 / ip_ratio=1.40 / aq=1:1.00
Дата кодирования : UTC 2014-04-09 23:59:23
Дата пометки : UTC 2014-04-10 00:25:10
Аудио
Идентификатор : 2
Формат : AAC
Формат/Информация : Advanced Audio Codec
Профиль формата : LC
Идентификатор кодека : 40
Продолжительность : 23 м.
Вид битрейта : Переменный
Битрейт : 253 Кбит/сек
Максимальный битрейт : 261 Кбит/сек
Каналы : 2 канала
Расположение каналов : Front: L R
Частота : 48,0 КГц
Метод сжатия : С потерями
Размер потока : 43,4 Мбайт (12%)
Заголовок : aac#trackID=1:lang=Japanese@GPAC0.5.1-DEV-rev4708
Язык : Japanese
Дата кодирования : UTC 2014-04-10 00:25:10
Дата пометки : UTC 2014-04-10 00:25:10

_________________
Показать сообщения:    

Текущее время: Сегодня 02:21

Часовой пояс: GMT



Вы не можете начинать темы
Вы не можете отвечать на сообщения
Вы не можете редактировать свои сообщения
Вы не можете удалять свои сообщения
Вы не можете голосовать в опросах
Вы не можете прикреплять файлы к сообщениям
Вы не можете скачивать файлы
Наши партнеры: интернет магазин Ивановского трикотажа textilla.ru