Важное объявление!
У Нас Все раздачи мультитрекерные, при нуле пиров в релизах, можете смело вставать на закачку!
 
Автор Сообщение

HUNTER

Стаж:
4 года 7 месяцев
Сообщений:
61573

Репутация: 101

[+] [-]
Вне форума [Профиль] [ЛС]

Цирк Колумбия / Cirkus Columbia-
Страна: Германия, Франция, Великобритания, Словения, Бельгия, Сербия, Босния и Герцеговина
Студия: Art & Popcorn, Asap Films, Autonomous
Жанр: Драма
Год выпуска: 2010
Продолжительность: 01:46:24-Перевод: Профессиональный (многоголосый закадровый)
Cубтитры: нет
Режиссер: Данис Танович / Danis Tanovic-В ролях: Мики Манойлович, Мира Фурлан, Борис Лер, Милан Штрлич, Марио Кнезович, Светислав Гончич, Мырза Танович-Описание: 1991 год. Небольшой городок на юге Герцеговины. После многих лет коммунистического режима настала очередь демократических перемен. В стране произошли свободные выборы, к власти пришли новые люди. Все это означает, что беглецы, проведшие многие годы вдали от Родины, могут вернуться домой. Один из таких политических беженцев, Дивко Бунтич, по возвращении в город детства начинает осуществлять личную месть своим обидчикам. Он вернулся не с пустыми руками: новая, на сорок лет младше его, жена, новый «Мерседес», черный кот и внушительный банковский счет. Первым актом отмщения для Дивко становится вышвыривание экс жены и сына из их старого дома. Благодаря деньгам Дивко побеждает во всех своих делах и, кажется, что ничто не помешает достичь герою полной сатисфакции. Но жизнь бывает полна сюрпризов: надвигающаяся война рассудит по-своему.-
IMDB 7.1/10 from 954 users-Бонусы: анонсы-Меню: статичное / озвученное-Сэмпл-Pелиз: IRONCLUB-Тип релиза: DVD5
Контейнер: DVD-Video-Видео: PAL 16:9 (720x576) VBR 25.000 fps, 5487 kbps
Аудио: Русский (Dolby AC3, 2 ch, 48 kHz, 224.00 kbps)

MediaInfo

H:\Cirk.Columbia.2010.DVD-5\VIDEO_TS\VTS_12_2.VOB
General
Complete name : H:\Cirk.Columbia.2010.DVD-5\VIDEO_TS\VTS_12_2.VOB
Format : MPEG-PS
File size : 1 024 MiB
Duration : 33mn 13s
Overall bit rate : 4 309 Kbps
Video #224
ID : 224 (0xE0)
Format : MPEG Video
Format version : Version 2
Format profile : Main@Main
Format settings, Matrix : Default
Duration : 33mn 13s
Bit rate mode : Variable
Bit rate : 3 914 Kbps
Nominal bit rate : 9 000 Kbps
Width : 720 pixels
Height : 576 pixels
Display aspect ratio : 16:9
Frame rate : 25.000 fps
Standard : PAL
Colorimetry : 4:2:0
Scan type : Interlaced
Scan order : Bottom Field First
Bits/(Pixel*Frame) : 0.378
Stream size : 930 MiB (91%)
Audio #128
ID : 128 (0x80)
Format : AC-3
Format/Info : Audio Coding 3
Duration : 33mn 13s
Bit rate mode : Constant
Bit rate : 224 Kbps
Channel(s) : 2 channels
Channel positions : L R
Sampling rate : 48.0 KHz
Video delay : -688ms
Stream size : 53.2 MiB (5%)

DVDInfo

Title: Новый том
Size: 3.97 Gb ( 4 158 942 KBytes ) - DVD-5
Enabled regions: 1, 2, 3, 4, 5, 6, 7, 8
VTS_01 :
Play Length: 00:00:15
Video: PAL 4:3 (720x576) VBR
Audio:
Not specified (Dolby AC3, 2 ch)
VTS_02 :
Play Length: 00:00:08
Video: PAL 16:9 (720x576) VBR, Auto Letterboxed
Audio:
Not specified (Dolby AC3, 2 ch)
VTS_03 :
Play Length: 00:00:12
Video: PAL 16:9 (720x576) VBR, Auto Letterboxed
Audio:
Not specified (Dolby AC3, 2 ch)
VTS_04 :
Play Length: 00:02:20
Video: PAL 4:3 (720x576) VBR
Audio:
Not specified (Dolby AC3, 2 ch)
VTS_05 :
Play Length: 00:01:47
Video: PAL 16:9 (720x576) VBR, Auto Letterboxed
Audio:
Not specified (Dolby AC3, 2 ch)
VTS_06 :
Play Length: 00:01:12
Video: PAL 16:9 (720x576) VBR, Auto Letterboxed
Audio:
Not specified (Dolby AC3, 2 ch)
VTS_07 :
Play Length: 00:02:06
Video: PAL 4:3 (720x576) VBR
Audio:
Not specified (Dolby AC3, 2 ch)
VTS_08 :
Play Length: 00:01:30
Video: PAL 16:9 (720x576) VBR, Auto Letterboxed
Audio:
Not specified (Dolby AC3, 2 ch)
VTS_09 :
Play Length: 00:02:34
Video: PAL 16:9 (720x576) VBR, Auto Letterboxed
Audio:
Not specified (Dolby AC3, 2 ch)
VTS_10 :
Play Length: 00:02:03
Video: PAL 16:9 (720x576) VBR, Auto Letterboxed
Audio:
Not specified (Dolby AC3, 2 ch)
VTS_11 :
Play Length: 00:02:33
Video: PAL 16:9 (720x576) VBR, Auto Letterboxed
Audio:
Not specified (Dolby AC3, 2 ch)
VTS_12 :
Play Length: 01:46:24
Video: PAL 16:9 (720x576) VBR, Auto Letterboxed
Audio:
Russian (Dolby AC3, 2 ch)
Скриншоты меню

Скриншоты


_________________
Показать сообщения:    

Текущее время: Сегодня 11:57

Часовой пояс: GMT



Вы не можете начинать темы
Вы не можете отвечать на сообщения
Вы не можете редактировать свои сообщения
Вы не можете удалять свои сообщения
Вы не можете голосовать в опросах
Вы не можете прикреплять файлы к сообщениям
Вы не можете скачивать файлы
Наши партнеры: интернет магазин Ивановского трикотажа textilla.ru