Важное объявление!
У Нас Все раздачи мультитрекерные, при нуле пиров в релизах, можете смело вставать на закачку!
Статистика раздачи
Размер:     |    Зарегистрирован:     |    Скачан:     |   
Нет
 
     
 
 
Автор Сообщение

HUNTER

Стаж:
5 лет 1 месяц
Сообщений:
68439

Репутация: 101

[+] [-]
Вне форума [Профиль] [ЛС]

Центр управления "Крым"
Год выпуска: 2015
Страна: Россия
Жанр: Документальный
Продолжительность: 00:38:51
Перевод: не требуется
Режиссер: Михаил КузовенковОписание: Центр дальней космической связи в Евпатории был создан в 1960 году, в основном, для исследования планет Солнечной системы и Луны. Рядом с ним был полигон, имитировавший поверхность Луны, где отрабатывались навыки управления Луноходом. Из центра поступали команды на межпланетные станции "Венера" и "Марс", принимались им и обрабатывались сигналы из дальних миров, было отправлено послание инопланетным цивилизациям. До 1975 года, когда Центр управления переместился в подмосковный Королев, Евпатория была главным узлом связи Земля - орбита. После распада СССР Евпаторийский центр был исключен из контура управления, что разрушило сложившуюся систему, которую срочно пришлось менять. Евпатория долго не могла найти себе место в космических исследованиях, аппаратура ветшала, специалисты уходили… Но ситуация изменилась, и здесь опять началась активная работа. В центре фильма – прошлое, настоящее и будущее этого уникального объекта, равных которому, по некоторым параметрам, нет в мире до сих пор.Примечание: в фильме использована в том числе анимация, изображающая зарубежные АМС, не имеющие отношения к крымскому центру.
Спасибо пользователю Parabellumm за запись фильма с ТВ.
Качество: DVB
Формат: MPEG-PS
Видео: MPEG, 704x576, 4:3, 2255 Kbps, 25 fps
Аудио: MPEG2, 128 Kbps, 48 KHz, 2 channels

MediaInfo

GeneralComplete name : S:\2015 - Центр управления Крым\Центр управления Крым (2015).mpgFormat : MPEG-PSFile size : 676 MiBDuration : 38mn 51sOverall bit rate : 2 432 Kbps
VideoID : 224 (0xE0)Format : MPEG VideoFormat version : Version 2Format profile : Main@MainFormat settings, BVOP : YesFormat settings, Matrix : DefaultFormat settings, GOP : M=2, N=24Duration : 38mn 50sBit rate mode : VariableBit rate : 2 255 KbpsNominal bit rate : 15.0 MbpsWidth : 704 pixelsHeight : 576 pixelsDisplay aspect ratio : 4:3Frame rate : 25.000 fpsStandard : PALColor space : YUVChroma subsampling : 4:2:0Bit depth : 8 bitsScan type : InterlacedScan order : Top Field FirstCompression mode : LossyBits/(Pixel*Frame) : 0.222Stream size : 627 MiB (93%)
AudioID : 192 (0xC0)Format : MPEG AudioFormat version : Version 1Format profile : Layer 2Duration : 38mn 51sBit rate mode : ConstantBit rate : 128 KbpsChannel(s) : 2 channelsSampling rate : 48.0 KHzCompression mode : LossyDelay relative to video : 21msStream size : 35.6 MiB (5%)

Скриншоты


_________________
Показать сообщения:    

Текущее время: Сегодня 18:47

Часовой пояс: GMT



Вы не можете начинать темы
Вы не можете отвечать на сообщения
Вы не можете редактировать свои сообщения
Вы не можете удалять свои сообщения
Вы не можете голосовать в опросах
Вы не можете прикреплять файлы к сообщениям
Вы не можете скачивать файлы