Важное объявление!
У Нас Все раздачи мультитрекерные, при нуле пиров в релизах, можете смело вставать на закачку!
 
Автор Сообщение

Game

Стаж:
4 года 6 месяцев
Сообщений:
2074

Репутация: 107

[+] [-]
Вне форума [Профиль] [ЛС]

Целуй меня, идиот! / Kyss meg for faen i helvete-
Страна: Норвегия
Жанр: драма, мелодрама, комедия
Год выпуска: 2013
Продолжительность: 01:33:43-Перевод: Любительский (двухголосый)[den904 и DeadSno]
Субтитры: нет-Режиссер: Стайан Кристиансен / Stian Kristiansen-В ролях: Eili Harboe, Шyvind Larsen Runestad, Кристоффер Йонер, Johanna Knudsen Rostad, Ruben Rosbach, Reno-Marйe Muren, Kim Andrй Bjшrkesett, Tuva Kvale Halseid, Anne Regine Ellingsжter, Рольф Кристиан Ларсен, Enja Henriksen, Edvard Nordbш-Описание: Юная Тале играет в театральной труппе, и скоро на сцене будет ставиться пьеса известного норвежского писателя Юна Фоссе. Кресло режиссера соглашается занять профессиональный актер, увязший в жизненном кризисе. Но соглашается с определенными условиями — он берет на главную мужскую роль местного героя, великого футболиста и идиота. Вскоре подростки понимают, что амбиции режиссера сделают из их жизни ад.-
-

Доп.Информация

Сценарий: Стайан Кристиансен / Stian Kristiansen, Камилла Крогсвен / Kamilla Krogsveen
Продюсер: Сигве Эндресен / Sigve Endresen, Ингве Сатер / Yngve Sжther, Gunhild Oddsen
Оператор: Тронд Тёндер / Trond Tшnder
Композитор: Фроде Йоханнессен / Frode Johannessen
Бюджет: NOK 9 100 000
Мировая премьера: 9 августа 2013
-Качество: HDRip
Контейнер: AVI
Видео: XviD, 720x304 (2.35:1), 1630 kbps, 23,976 fps, 0,311 bpp
Аудио: AC3 / 5.1 / 48 kHz / 448 kbps / 16 bit-

Media Info

Общее
Полное имя : G:\Celui.menja.idiot.2013.L_HDRip.avi
Формат : AVI
Формат/Информация : Audio Video Interleave
Размер файла : 1,37 Гбайт
Продолжительность : 1 ч. 33 м.
Общий поток : 2088 Кбит/сек
Программа кодирования : VirtualDubMod 1.5.10.3 | www.virtualdub-fr.org || (build 2550/release)
Библиотека кодирования : VirtualDubMod build 2550/release
Видео
Идентификатор : 0
Формат : MPEG-4 Visual
Профиль формата : Advanced Simple@L5
Параметр BVOP формата : 1
Параметр QPel формата : Нет
Параметр GMC формата : Без точки перехода
Параметр матрицы формата : Выборочная
Идентификатор кодека : XVID
Идентификатор кодека/Подсказка : XviD
Продолжительность : 1 ч. 33 м.
Битрейт : 1631 Кбит/сек
Ширина : 720 пикселей
Высота : 304 пикселя
Соотношение сторон : 2,35:1
Частота кадров : 23,976 кадра/сек
Цветовое пространство : YUV
Субдискретизация насыщенности : 4:2:0
Битовая глубина : 8 бит
Тип развёртки : Прогрессивная
Метод сжатия : С потерями
Бит/(Пиксели*Кадры) : 0.311
Размер потока : 1,07 Гбайт (78%)
Библиотека кодирования : XviD 1.2.1 (UTC 2008-12-04)
Аудио
Идентификатор : 1
Формат : AC-3
Формат/Информация : Audio Coding 3
Расширение режима : CM (complete main)
Параметр Endianness формата : Big
Идентификатор кодека : 2000
Продолжительность : 1 ч. 33 м.
Вид битрейта : Постоянный
Битрейт : 448 Кбит/сек
Каналы : 6 каналов
Расположение каналов : Front: L C R, Side: L R, LFE
Частота : 48,0 КГц
Битовая глубина : 16 бит
Метод сжатия : С потерями
Размер потока : 300 Мбайт (21%)
Выравнивание : Разделение по промежуткам
Продолжительность промежутка : 42 мс. (1,00 видеокадр)
Время предзагрузки промежутка : 500 мс.

Скриншоты

-
Показать сообщения:    

Текущее время: Сегодня 12:57

Часовой пояс: GMT



Вы не можете начинать темы
Вы не можете отвечать на сообщения
Вы не можете редактировать свои сообщения
Вы не можете удалять свои сообщения
Вы не можете голосовать в опросах
Вы не можете прикреплять файлы к сообщениям
Вы не можете скачивать файлы