Важное объявление!
У Нас Все раздачи мультитрекерные, при нуле пиров в релизах, можете смело вставать на закачку!
Статистика раздачи
Размер:     |    Зарегистрирован:     |    Скачан:     |   
Нет
 
     
 
 
Автор Сообщение

HUNTER

Стаж:
5 лет 1 месяц
Сообщений:
68439

Репутация: 101

[+] [-]
Вне форума [Профиль] [ЛС]

Цезарь и Клеопатра / Caesar and Cleopatra / Criterion.Eclipse Series #20 «Never before such seductive beauty; such riotous... luxurious... loving and living»
Страна:Великобритания
Студия:Gabriel Pascal Productions, Independent Producers.
Жанр:Драма, Мелодрама, Комедия, Военный, Биография, История
Год выпуска:1945
Продолжительность:02:07:58
Перевод 1:Профессиональный (двухголосый закадровый) Film PrestigeПеревод 2:Профессиональный (многоголосый закадровый) -ДВД МагияCубтитры:Английские, Русские
Оригинальная аудиодорожка:Английский
Премьера (мир):11.12.1945
Режиссер:Габриель Паскаль /Gabriel Pascal
В ролях:Клод Рейнс — Юлий Цезарь, император.
Вивьен Ли — Клеопатра, молодая египетская царица.
Стюарт Грейнджер — Апполодорус, патриций.
Флора Робсон — Фтататита, няня Клеопатры.
Франсис Салливан — Потхинус
Бэзил Сидни — Руфий, римский военачальник
Сесил Паркер — Британнус, поководец Цезаря.
Стэнли Холлоуэй — Белзанор
Раймонд Лоуэлл — Луций Септимус
Эрнест Тезиге — Теодорус, греческий наемник.
Энтони Харви — Птолемей XIII, юный фараон Египта
Джин Симмонс — Харпист
Майкл Ренни — Центурион
Описание: Исторические данные свидетельствуют о том, что, прибыв в Египет, Юлий Цезарь сделал шестнадцатилетнюю Клеопатру своей любовницей и единовластной царицей Египта. О том же и картина — о взаимоотношениях стареющего Цезаря и юной Клеопатры.

Доп. информация:Исходник найден в сети.Русский двухголосый закадровый и субтитрывзяты из раздачи intellect http://rutracker.org/forum/viewtopic.php?t=4592183 .Профессиональный (многоголосый закадровый) ДВД Магия любезно предоставлен Turkmenledi
Реавторинг Нордер.
Огромное Спасибо Всем, без чьей помощи этот релиз не состоялся бы!Сценарий:Джордж Бернард ШоуПродюсер:Гэбриел Паскаль, Дж. Артур РэнкОператор:Джек Кардифф, Джек Хилдъярд, Роберт Краскер
Композитор:Жорж Орик
Художник:Джон Брайан, Оливер Мессель
Монтаж:Фредерик Уилсон, Джоан Уорвик

Это интересно

Гэбриел Паскаль-https://en.wikipedia.org/wiki/Gabriel_Pascal Фильм-[url=https://ru.wikipedia.org/wiki/Цезарь_и_Клеопатра_(фильм,_1945)]https://ru.wikipedia.org/wiki/Цезарь_и_Клеопатра_(фильм,_1945)[/url]

Награды и номинации

Рецензия

helekven(Кинопоиск)
Любовь не может имееть границ
Цезарь и Клеопатра. Одна из самых ярких, известных, и в то же время, загадочных пар в истории. И данная экранизация характеризует именно это — невозможность абсолютно точно показать заинтересованному зрителю все грани столь сложных взаимоотношений между мужчиной и женщиной. Мужчины и женщины, наделенных практически не ограниченной властью по нашим меркам, и — безграничной, по меркам Древнего Мира.
Вивьен Ли чудесно подошла для этой роли. Юная, свежая, и еще столь невинная девушка, и в то же время особа царской крови, знающая свое предназначение и особо умело пользующаяся и тем, и другим. Та детская непосредственность, которая преобладает в первой встрече Клеопатры и Цезаря, и та не поддельная уверенность в своих силах и царская стать в их последней встрече. Безусловно, роль сыграна блистательно. Как и сама эта волшебная история любви.
Клод Рейнс весьма недурно весь фильм демонстрирует одно из самых главных качеств Цезаря — острый ум, решительность, благоразумие.
Итог — живописная реализация красочной истории.
10 из 10

Софт

PGCDemux (извлечение).
BeSweet, Sony Vegas 9 (звук).
DVD-lab PRO 2, Subtitle Workshop (субтитры).
MuxMan (сборка). DvdReMakePro (финал).
Меню:Английский, статичное, неозвученное.
Сэмпл:https://www.sendspace.com/file/w3q26j
Тип релиза:DVDх9 (Custom)
Контейнер:DVD-Video
Видео:NTSC 4:3 (720x480) VBR, 7520 Кбит/сек, 29,970 кадров/сек
Аудио 1:Русский:AC3, 2 ch, 48.0 KHz, 192 Кбит/сек / Film PrestigeАудио 2:Русский:AC3, 2 ch, 48.0 KHz, 192 Кбит/сек / ДВД МагияАудио 3:Английский:AC3, 1 ch, 48.0 KHz, 384 Кбит/сек / (Оригинал)
Формат субтитров:prerendered (DVD/IDX+SUB)

Dvd Info

Title: Caesar And Cleopatra DVD-9_Custom_Eclipse Series #20
Size: 7.78 Gb ( 8 161 292,00 KBytes ) - DVD-9
Enabled regions: 1, 2, 3, 4, 5, 6, 7, 8
VTS_01 :
Play Length: 00:00:00
Video: NTSC 4:3 (720x480) VBR
VTS_02 :
Play Length: 02:07:58
Video: NTSC 4:3 (720x480) VBR
Audio:
Russian, AC3, 2/0 (L,R) ch, 192 kbps, Delay 0 mSec
Russian, AC3, 2/0 (L,R) ch, 192 kbps, Delay 0 mSec
English, AC3, 1/0 (C) ch, 384 kbps, Delay 0 mSec
Subtitles:
English
Russian
VTS_03 :
Play Length: 00:00:20
Video: NTSC 4:3 (720x480) VBR
VTS_04 :
Play Length: 00:00:00
Video: NTSC 4:3 (720x480) VBR

MediaInfo


Общее
Полное имя: F:\Caesar And Cleopatra DVD-9_Custom_Eclipse Series #20\VIDEO_TS\VTS_02_1.VOB
Формат : MPEG-PS
Размер файла : 1024 Мбайт
Продолжительность : 16 м.
Режим общего битрейта : Переменный
Общий поток : 8437 Кбит/сек
Видео
Идентификатор : 224 (0xE0)
Формат : MPEG Video
Версия формата : Version 2
Профиль формата : Main@Main
Параметр BVOP формата : Да
Параметр матрицы формата : Выборочная
Параметр GOP формата : M=3, N=12
Продолжительность : 16 м.
Вид битрейта : Переменный
Битрейт : 7501 Кбит/сек
Максимальный битрейт : 9406 Кбит/сек
Ширина : 720 пикселей
Высота : 480 пикселей
Соотношение сторон : 4:3
Частота кадров : 29,970 кадров/сек
Стандарт вещания : NTSC
Цветовое пространство : YUV
Субдискретизация насыщенности : 4:2:0
Битовая глубина : 8 бит
Метод сжатия : С потерями
Бит/(Пиксели*Кадры) : 0.724
Временной код первого кадра : 00:00:00:00
Оригинал временного кода : Group of pictures header
Размер потока : 910 Мбайт (89%)
Аудио #1
Идентификатор : 189 (0xBD)-128 (0x80)
Формат : AC-3
Формат/Информация : Audio Coding 3
Расширение режима : CM (complete main)
Параметр Endianness формата : Big
Режим смешивания : DVD-Video
Продолжительность : 16 м.
Вид битрейта : Постоянный
Битрейт : 192 Кбит/сек
Каналы : 2 канала
Расположение каналов : Front: L R
Частота : 48,0 КГц
Битовая глубина : 16 бит
Метод сжатия : С потерями
Размер потока : 23,3 Мбайт (2%)
Аудио #2
Идентификатор : 189 (0xBD)-129 (0x81)
Формат : AC-3
Формат/Информация : Audio Coding 3
Расширение режима : CM (complete main)
Параметр Endianness формата : Big
Режим смешивания : DVD-Video
Продолжительность : 16 м.
Вид битрейта : Постоянный
Битрейт : 192 Кбит/сек
Каналы : 2 канала
Расположение каналов : Front: L R
Частота : 48,0 КГц
Битовая глубина : 16 бит
Метод сжатия : С потерями
Размер потока : 23,3 Мбайт (2%)
Аудио #3
Идентификатор : 189 (0xBD)-130 (0x82)
Формат : AC-3
Формат/Информация : Audio Coding 3
Расширение режима : CM (complete main)
Параметр Endianness формата : Big
Режим смешивания : DVD-Video
Продолжительность : 16 м.
Вид битрейта : Постоянный
Битрейт : 384 Кбит/сек
Каналы : 1 канал
Расположение каналов : Front: C
Частота : 48,0 КГц
Битовая глубина : 16 бит
Метод сжатия : С потерями
Размер потока : 46,6 Мбайт (5%)
Текст #1
Идентификатор : 189 (0xBD)-32 (0x20)
Формат : RLE
Формат/Информация : Run-length encoding
Режим смешивания : DVD-Video
Текст #2
Идентификатор : 189 (0xBD)-33 (0x21)
Формат : RLE
Формат/Информация : Run-length encoding
Режим смешивания : DVD-Video

Скриншоты меню

Скриншоты

Полиграфия










Уважаемые пользователи!Найдите пару минут поблагодарить релизера и высказаться в топике раздачи.Ваше мнение - бальзам для раздающего и пища для ума остальным пользователям.Мои раздачи 8.11.2014-12-00-добавлена звуковая дорожка ДВД Магия.Торрент файл перезалит.

_________________
Показать сообщения:    

Текущее время: Сегодня 16:56

Часовой пояс: GMT



Вы не можете начинать темы
Вы не можете отвечать на сообщения
Вы не можете редактировать свои сообщения
Вы не можете удалять свои сообщения
Вы не можете голосовать в опросах
Вы не можете прикреплять файлы к сообщениям
Вы не можете скачивать файлы