Ивановский Торрент трекер
Яндекс.Погода
 

[Цитировать]
HUNTER

Цвет денег / The Color of Money
Страна: США
Жанр: азартные игры, авантюрная драма
Год выпуска: 1986
Продолжительность: 01:54:47
Перевод: Профессиональный (многоголосый закадровый) НЕВАФИЛЬМ
Cубтитры: русские, английские (вкл/выкл)
Оригинальная аудиодорожка: английский
Режиссер: Мартин Скорсезе / Martin Scorsese
В ролях: Пол Ньюман, Том Круз,
Мэри Элизабет Мастрантонио, Хелен Шейвер,
Джон Туртурро, Билл Коббс, Роберт Эджинс,
Элвин Анастасия, Рэндолл Арни, Элизабет Бракко и др.
Описание: Быстрому Эдди, виртуозному игроку в бильярд, нет равных за зелёным столом. Для других это развлечение, для него — серьёзная работа и большие деньги. У него появляется конкурент, новичок Винц, у которого есть всё, что нужно для победы: талант, везение и поддержка обворожительной подруги, но ему не хватает почерка мастера.
Эдди становится его наставником и учит восходящую звезду тонкостям большой игры. На зеленом сукне, цвета денег, один на один с судьбой…
Меню: русский, английский. Статичное, озвученное.
Издатель диска: Уoлт Диcнeй Koмпaни CHГ
Тип релиза: DVD5
Контейнер: DVD-Video
Vidео: PAL 720x576, 16:9 Auto Letterboxed, VBR 3893 kbps - 8000 kbps, 0.375 bit/pixel
Аudiо #1: Russian AC-3 Dolby Digital, CBR 192 kbps 2 ch, Front: L R, 48.0 KHz
Аudiо #2: English AC-3 Dolby Digital, CBR 192 kbps 2 ch, Front: L R, 48.0 KHz

DVDInfo

Title: The_Color_of_Money_1986_DVD5_[rutracker.org]Size: 4.18 Gb ( 4 383 130,00 KBytes ) - DVD-5Enabled regions: 1, 2, 3, 4, 5, 6
VTS_01 : Play Length: 00:00:05 Video: PAL 16:9 (720x576) VBR, Auto Pan&Scan, Auto Letterboxed
VTS_02 : Play Length: 00:00:03 Video: PAL 16:9 (720x576) VBR, Auto Pan&Scan, Auto Letterboxed
VTS_03 : Play Length: 00:00:13 Video: PAL 16:9 (720x576) VBR, Auto Letterboxed Audio: Russian (Dolby AC3, 6 ch)
VTS_04 : Play Length: 00:00:00 Video: PAL 16:9 (720x576) VBR, Auto Letterboxed
VTS_05 : Play Length: 01:54:47 Video: PAL 16:9 (720x576) VBR, Auto Letterboxed Audio: Russian (Dolby AC3, 2 ch) English (Dolby AC3, 2 ch) Subtitles: Russian English
VTS_06 : Play Length: 00:00:08 Video: PAL 16:9 (720x576) VBR, Auto Pan&Scan, Auto Letterboxed
VTS_07 : Play Length: 00:00:05 Video: PAL 16:9 (720x576) VBR, Auto Pan&Scan, Auto Letterboxed
VTS_08 : Play Length: 00:00:05 Video: PAL 16:9 (720x576) VBR, Auto Pan&Scan, Auto Letterboxed
VTS_09 : Play Length: 00:00:13 Video: PAL 16:9 (720x576) VBR, Auto Letterboxed Audio: Russian (Dolby AC3, 6 ch)
VTS_10 : Play Length: 00:00:00 Video: PAL 16:9 (720x576) VBR, Auto Letterboxed
* Menus Information *
VIDEO_TS MenuVideo: PAL 16:9 (720x576) VBR Auto Pan&Scan, Auto LetterboxedEnglish Language Unit : Title Menu
VTS_01 MenuVideo: PAL 16:9 (720x576) VBR Auto LetterboxedAudio: Not specified (Dolby AC3, 2 ch)English Language Unit : Root Menu
VTS_02 MenuVideo: PAL 4:3 (720x576) VBREnglish Language Unit : Root Menu
VTS_03 MenuVideo: PAL 4:3 (720x576) VBREnglish Language Unit : Root Menu
VTS_04 MenuVideo: PAL 4:3 (720x576) VBREnglish Language Unit : Root Menu
VTS_05 MenuVideo: PAL 4:3 (720x576) VBREnglish Language Unit : Root Menu
VTS_06 MenuVideo: PAL 4:3 (720x576) VBREnglish Language Unit : Root Menu
VTS_07 MenuVideo: PAL 4:3 (720x576) VBREnglish Language Unit : Root Menu
VTS_08 MenuVideo: PAL 4:3 (720x576) VBREnglish Language Unit : Root Menu
VTS_09 MenuVideo: PAL 4:3 (720x576) VBREnglish Language Unit : Root Menu
VTS_10 MenuVideo: PAL 4:3 (720x576) VBREnglish Language Unit : Root Menu

MediaInfo - VTS_05_1.VOB

ОбщееПолное имя : R:\The_Color_of_Money_1986_DVD5_[rutracker.org]\VIDEO_TS\VTS_05_1.VOBФормат : MPEG-PSРазмер файла : 1024 МбайтПродолжительность : 32 м.Режим общего битрейта : ПеременныйОбщий поток : 4363 Кбит/сек
ВидеоИдентификатор : 224 (0xE0)Формат : MPEG VideoВерсия формата : Version 2Профиль формата : Main@MainПараметр BVOP формата : ДаПараметр матрицы формата : По умолчаниюПараметр GOP формата : M=3, N=12Продолжительность : 32 м.Вид битрейта : ПеременныйБитрейт : 3893 Кбит/секМаксимальный битрейт : 8000 Кбит/секШирина : 720 пикселейВысота : 576 пикселейСоотношение сторон : 16:9Частота кадров : 25,000 кадров/секСтандарт вещания : PALЦветовое пространство : YUVСубдискретизация насыщенности : 4:2:0Битовая глубина : 8 битТип развёртки : ЧересстрочнаяПорядок развёртки : Верхнее поле первоеМетод сжатия : С потерямиБит/(Пиксели*Кадры) : 0.375Временной код первого кадра : 00:00:00:00Оригинал временного кода : Group of pictures headerРазмер потока : 914 Мбайт (89%)Основные цвета : BT.601 PALХарактеристики трансфера : BT.470 System B, BT.470 System GКоэффициенты матрицы : BT.601
Аудио #1Идентификатор : 189 (0xBD)-128 (0x80)Формат : AC-3Формат/Информация : Audio Coding 3Расширение режима : CM (complete main)Параметр Endianness формата : BigРежим смешивания : DVD-VideoПродолжительность : 32 м.Вид битрейта : ПостоянныйБитрейт : 192 Кбит/секКаналы : 2 каналаРасположение каналов : Front: L RЧастота : 48,0 КГцБитовая глубина : 16 битМетод сжатия : С потерямиРазмер потока : 45,1 Мбайт (4%)
Аудио #2Идентификатор : 189 (0xBD)-129 (0x81)Формат : AC-3Формат/Информация : Audio Coding 3Расширение режима : CM (complete main)Параметр Endianness формата : BigРежим смешивания : DVD-VideoПродолжительность : 32 м.Вид битрейта : ПостоянныйБитрейт : 192 Кбит/секКаналы : 2 каналаРасположение каналов : Front: L RЧастота : 48,0 КГцБитовая глубина : 16 битМетод сжатия : С потерямиРазмер потока : 45,1 Мбайт (4%)
Текст #1Идентификатор : 189 (0xBD)-32 (0x20)Формат : RLEФормат/Информация : Run-length encodingРежим смешивания : DVD-VideoПродолжительность : 32 м.Задержка видео : 12 с.
Текст #2Идентификатор : 189 (0xBD)-33 (0x21)Формат : RLEФормат/Информация : Run-length encodingРежим смешивания : DVD-VideoПродолжительность : 32 м.Задержка видео : 12 с.
Текст #3Идентификатор : 189 (0xBD)-34 (0x22)Формат : RLEФормат/Информация : Run-length encodingРежим смешивания : DVD-Video
Текст #4Идентификатор : 189 (0xBD)-35 (0x23)Формат : RLEФормат/Информация : Run-length encodingРежим смешивания : DVD-Video
Меню

Скриншоты меню


Скриншоты




Дополнительная информация



Дополнительная информация



Время раздачи - по возможности.


Показать сообщения:    

Текущее время: 14-Дек 08:26

Часовой пояс: UTC ± 0


Вы не можете начинать темы
Вы не можете отвечать на сообщения
Вы не можете редактировать свои сообщения
Вы не можете удалять свои сообщения
Вы не можете голосовать в опросах
Вы не можете прикреплять файлы к сообщениям
Вы не можете скачивать файлы

!ВНИМАНИЕ!
Сайт не предоставляет электронные версии произведений, а занимается лишь коллекционированием и каталогизацией ссылок, присылаемых и публикуемых на форуме нашими читателями. Если вы являетесь правообладателем какого-либо представленного материала и не желаете, чтобы ссылка на него находилась в нашем каталоге, свяжитесь с нами, и мы незамедлительно удалим ее. Файлы для обмена на трекере предоставлены пользователями сайта, и администрация не несет ответственности за их содержание. Просьба не заливать файлы, защищенные авторскими правами, а также файлы нелегального содержания!