Важное объявление!
У Нас Все раздачи мультитрекерные, при нуле пиров в релизах, можете смело вставать на закачку!
Статистика раздачи
Размер:     |    Зарегистрирован:     |    Скачан:     |   
Нет
 
     
 
 
Автор Сообщение

HUNTER

Стаж:
5 лет 1 месяц
Сообщений:
68439

Репутация: 101

[+] [-]
Вне форума [Профиль] [ЛС]

Царь царей / King Of Kings«Of good and evil, of love and hate, of peace and war»-
Страна: США
Жанр: драма, биография, история
Год выпуска: 1961
Продолжительность: 02:50:58-Перевод: Профессиональный (многоголосый закадровый) SomeWax
Оригинальная аудиодорога: English
Cубтитры: Russian, English, German
Навигация по главам: Присутствует-Режиссер: Николас Рей / Nicholas Ray
В ролях: Джеффри Хантер, Шаван МакКенна, Херд Хэтфилд, Рон Рэнделл, Вивека Линдфорс, Рита Гэм, Кармен Севилья, Brigid Bazlen, Гарри Гуардино, Рип Торн-Описание: Нестареющий классический фильм о жизни Иисуса Христа.-
Download sample-Качество видео: BDRip 720p
Формат видео: MKV-Видео: 1280x544 at 23.976 fps, x264@L4.1, ~4795 kbps
Аудио №1: 48 kHz/24-bit, DTS, 3/2 (L,C,R,l,r) + LFE ch, ~1509.00 kbps | Профессиональный (многоголосый закадровый) SomeWax
Аудио №2: 48 kHz/24-bit, DTS, 3/2 (L,C,R,l,r) + LFE ch, ~1509.00 kbps | English-

Notes

Сохранены оригинальные чаптеры как на Blu-Ray.
by DeTorquemada

MediaInfo

General
Unique ID : 198831285515888644959432457898178439394 (0x9595833E0D9AB565A03F335B5358E8E2)
Complete name : D:\Фильмы\King.of. Kings.1961.720p.BluRay.Rus.Eng.HDCLUB.mkv
Format : Matroska
Format version : Version 4 / Version 2
File size : 9.52 GiB
Duration : 2h 50mn
Overall bit rate : 7 971 Kbps
Movie name : Create by DeTorquemada for HDCLUB
Encoded date : UTC 2014-03-12 14:51:59
Writing application : mkvmerge v6.6.0 ('The Edge Of The In Between') built on Dec 1 2013 17:55:00
Writing library : libebml v1.3.0 + libmatroska v1.4.1
Video
ID : 1
Format : AVC
Format/Info : Advanced Video Codec
Format profile : High@L4.1
Format settings, CABAC : Yes
Format settings, ReFrames : 11 frames
Codec ID : V_MPEG4/ISO/AVC
Duration : 2h 50mn
Bit rate : 4 795 Kbps
Width : 1 280 pixels
Height : 544 pixels
Display aspect ratio : 2.35:1
Frame rate mode : Constant
Frame rate : 23.976 fps
Color space : YUV
Chroma subsampling : 4:2:0
Bit depth : 8 bits
Scan type : Progressive
Bits/(Pixel*Frame) : 0.287
Stream size : 5.73 GiB (60%)
Title : Царь царей / King Of Kings (1961) - Release for HDCLUB
Writing library : x264 core 138 r2358 9e941d1
Encoding settings : cabac=1 / ref=11 / deblock=1:-3:-3 / analyse=0x3:0x113 / me=umh / subme=10 / psy=1 / psy_rd=1.00:0.00 / mixed_ref=1 / me_range=48 / chroma_me=1 / trellis=2 / 8x8dct=1 / cqm=0 / deadzone=21,11 / fast_pskip=1 / chroma_qp_offset=-2 / threads=6 / lookahead_threads=1 / sliced_threads=0 / nr=0 / decimate=1 / interlaced=0 / bluray_compat=0 / constrained_intra=0 / bframes=3 / b_pyramid=2 / b_adapt=2 / b_bias=0 / direct=1 / weightb=1 / open_gop=0 / weightp=2 / keyint=240 / keyint_min=23 / scenecut=40 / intra_refresh=0 / rc_lookahead=65 / rc=crf / mbtree=0 / crf=17.0 / qcomp=0.60 / qpmin=0 / qpmax=69 / qpstep=4 / vbv_maxrate=50000 / vbv_bufsize=62500 / crf_max=0.0 / nal_hrd=none / ip_ratio=1.40 / pb_ratio=1.30 / aq=1:0.80
Language : English
Default : Yes
Forced : No
Matrix coefficients : BT.709
Audio #1
ID : 2
Format : DTS
Format/Info : Digital Theater Systems
Mode : 16
Format settings, Endianness : Big
Codec ID : A_DTS
Duration : 2h 50mn
Bit rate mode : Constant
Bit rate : 1 509 Kbps
Channel count : 6 channels
Channel positions : Front: L C R, Side: L R, LFE
Sampling rate : 48.0 KHz
Bit depth : 24 bits
Compression mode : Lossy
Stream size : 1.80 GiB (19%)
Title : 48 kHz/24-bit, DTS, 3/2 (L,C,R,l,r) + LFE ch, ~1509.00 kbps - Многоголосый закадровый, SomeWax
Language : Russian
Default : Yes
Forced : No
Audio #2
ID : 3
Format : DTS
Format/Info : Digital Theater Systems
Mode : 16
Format settings, Endianness : Big
Codec ID : A_DTS
Duration : 2h 50mn
Bit rate mode : Constant
Bit rate : 1 509 Kbps
Channel count : 6 channels
Channel positions : Front: L C R, Side: L R, LFE
Sampling rate : 48.0 KHz
Bit depth : 24 bits
Compression mode : Lossy
Stream size : 1.80 GiB (19%)
Title : English: 48 kHz/24-bit, DTS, 3/2 (L,C,R,l,r) + LFE ch, ~1509.00 kbps
Language : English
Default : No
Forced : No
Text #1
ID : 4
Format : UTF-8
Codec ID : S_TEXT/UTF8
Codec ID/Info : UTF-8 Plain Text
Title : Subtitles/Captions
Language : Russian
Default : No
Forced : No
Text #2
ID : 5
Format : UTF-8
Codec ID : S_TEXT/UTF8
Codec ID/Info : UTF-8 Plain Text
Title : Subtitles/Captions
Language : English
Default : No
Forced : No
Text #3
ID : 6
Format : UTF-8
Codec ID : S_TEXT/UTF8
Codec ID/Info : UTF-8 Plain Text
Title : Subtitles/Captions
Language : German
Default : No
Forced : No
Menu
00:00:00.000 : en:
00:03:47.644 : en:
00:06:13.372 : en:
00:10:51.359 : en:
00:12:54.315 : en:
00:16:04.004 : en:
00:20:51.833 : en:
00:23:12.933 : en:
00:28:34.838 : en:
00:33:02.230 : en:
00:36:50.917 : en:
00:41:18.267 : en:
00:43:12.339 : en:
00:48:09.344 : en:
00:52:01.993 : en:
00:54:51.538 : en:
00:59:50.962 : en:
01:02:22.196 : en:
01:04:05.466 : en:
01:07:56.739 : en:
01:10:42.446 : en:
01:12:35.142 : en:
01:15:34.112 : en:
01:17:45.994 : en:
01:19:55.373 : en:
01:21:56.620 : en:
01:25:14.192 : en:
01:34:11.020 : en:
01:37:50.573 : en:
01:39:22.873 : en:
01:42:00.781 : en:
01:45:37.456 : en:
01:46:20.374 : en:
01:50:42.469 : en:
01:53:34.474 : en:
01:56:05.541 : en:
02:01:09.011 : en:
02:02:56.786 : en:
02:08:46.593 : en:
02:13:08.689 : en:
02:16:25.051 : en:
02:21:01.244 : en:
02:22:33.878 : en:
02:25:50.241 : en:
02:28:36.908 : en:
02:32:14.166 : en:
02:35:36.952 : en:
02:38:45.891 : en:
02:41:09.993 : en:
02:44:40.870 : en:
02:46:42.993 : en:
02:48:49.244 : en:
02:50:58.706 : en:

_________________
Показать сообщения:    

Текущее время: Сегодня 15:25

Часовой пояс: GMT



Вы не можете начинать темы
Вы не можете отвечать на сообщения
Вы не можете редактировать свои сообщения
Вы не можете удалять свои сообщения
Вы не можете голосовать в опросах
Вы не можете прикреплять файлы к сообщениям
Вы не можете скачивать файлы