Ивановский Торрент трекер
Яндекс.Погода
 

[Цитировать]
HUNTER

Царь-ракета
Дата/Год выпуска: 2012
Страна: Россия
Жанр: научно-познавательный
Продолжительность: 00:26:10
Перевод: Не требуется
Русские субтитры: нет
Оригинальная аудиодорожка: русский
Режиссер: Дмитрий Свергун
Описание: В степях, рядом с космодромом "Байконур" проходили летные испытаний ракетоносителя Н-1. 30 лет назад здесь упала и взорвалась самая большая ракета в Советской Союзе, её назвали "царь-ракетой". Кажется фантастикой, но задолго до полета Юрия Гагарина, в Советском Союзе уже шла подготовка к полету на Марс. Ещё в 1959 году в ОКБ-1 с одобрения С. Королева была создана группа Михаила Тихонравова, которая проектировала тяжелый межпланетный корабль. Планировалась дальняя экспедиция с высадкой на Марс, трех или даже четырёх космонавтов. Американцы как про это прознали, непременно захотели стать первыми.
качество: SATRip
формат: AVI
Видео: MPEG4, XviD, 640x480 (4:3), 25.000 fps, 1 603 Kbps (0.209 bit/pixel)
Аудио: MP3, 48.0 KHz, 2 ch, 128 Kbps, CBR

Сравнение скриншотов:

MediaInfo

GeneralComplete name : G:\документалка\Царь-ракета.aviFormat : AVIFormat/Info : Audio Video InterleaveFile size : 326 MiBDuration : 26mn 10sOverall bit rate : 1 741 KbpsWriting application : VirtualDubMod 1.5.10.3 | www.virtualdub-fr.org || (build 2550/release)Writing library : VirtualDubMod build 2550/release
VideoID : 0Format : MPEG-4 VisualFormat profile : Advanced Simple@L5Format settings, BVOP : 2Format settings, QPel : NoFormat settings, GMC : No warppointsFormat settings, Matrix : Default (H.263)Codec ID : XVIDCodec ID/Hint : XviDDuration : 26mn 10sBit rate : 1 603 KbpsWidth : 640 pixelsHeight : 480 pixelsDisplay aspect ratio : 4:3Frame rate : 25.000 fpsColor space : YUVChroma subsampling : 4:2:0Bit depth : 8 bitsScan type : ProgressiveCompression mode : LossyBits/(Pixel*Frame) : 0.209Stream size : 300 MiB (92%)Writing library : XviD 65
AudioID : 1Format : MPEG AudioFormat version : Version 1Format profile : Layer 3Codec ID : 55Codec ID/Hint : MP3Duration : 26mn 10sBit rate mode : ConstantBit rate : 128 KbpsChannel(s) : 2 channelsSampling rate : 48.0 KHzCompression mode : LossyStream size : 24.0 MiB (7%)Alignment : Aligned on interleavesInterleave, duration : 40 ms (1.00 video frame)Interleave, preload duration : 504 msWriting library : LAME3.99rEncoding settings : -m s -V 4 -q 0 -lowpass 17 -b 128

Скриншоты



Показать сообщения:    

Текущее время: 11-Дек 13:26

Часовой пояс: UTC ± 0


Вы не можете начинать темы
Вы не можете отвечать на сообщения
Вы не можете редактировать свои сообщения
Вы не можете удалять свои сообщения
Вы не можете голосовать в опросах
Вы не можете прикреплять файлы к сообщениям
Вы не можете скачивать файлы

!ВНИМАНИЕ!
Сайт не предоставляет электронные версии произведений, а занимается лишь коллекционированием и каталогизацией ссылок, присылаемых и публикуемых на форуме нашими читателями. Если вы являетесь правообладателем какого-либо представленного материала и не желаете, чтобы ссылка на него находилась в нашем каталоге, свяжитесь с нами, и мы незамедлительно удалим ее. Файлы для обмена на трекере предоставлены пользователями сайта, и администрация не несет ответственности за их содержание. Просьба не заливать файлы, защищенные авторскими правами, а также файлы нелегального содержания!