Царь-ракета (Б. Смирнов) [2008 - 2009, документальный, TVRip](2 фильма) :: Ивановский Торрент трекер
Важное объявление!
У Нас Все раздачи мультитрекерные, при нуле пиров в релизах, можете смело вставать на закачку!
Статистика раздачи
Размер:     |    Зарегистрирован:     |    Скачан:     |   
Нет
 
     
 
 
Автор Сообщение

HUNTER

Стаж:
4 года 11 месяцев
Сообщений:
66052

Репутация: 101

[+] [-]
Вне форума [Профиль] [ЛС]

Царь-ракета
Дата/Год выпуска: 2008 - 2009
Страна: Россия
Жанр: документальный
Продолжительность: 2 х 28 мин
Перевод: Не требуется
Режиссер: Б. Смирнов
Описание: Двухсерийный документальный фильм о главной ракете Советского Союза.
Фильм 1. "Атомная колыбель" – о разработках командой Королева межконтинентальной ракеты, которая будет способна нести несколько тонн ядерного заряда, о строительстве "Байконура", о первых неудачных пусках, о роли "Семёрки" в холодной войне.
Фильм 2. "Взлёт" – о другой судьбе этой ракеты: о запуске первого искусственного спутника Земли, о "счастливой одежде" Королёва, и о первом полёте Гагарина на корабле "Восток".
В фильме использованы уникальные документальные кадры подготовки Гагарина к старту, мы услышим Д.Т. Язова - 7-го министра обороны СССР, К.П. Феоктистова - конструктора, летчика-космонавта, М.Г. Григорьева - в 1968-1981 гг. первого заместителя Главнокомандующего Ракетными войсками, Б.Е. Чертока - выдающегося советского и российского учёного-конструктора, Героя Социалистического Труда, одного из ближайших соратников С.П. Королёва.
Сэмпл: http://sendfile.su/1151175
качество: TVRip
формат: AVI
Видео: DivX, 1700 Кбит/сек, 720 x 464 (1.552), 25.000 fps
Аудио: МР3, 128 Кбит/сек, 2 канала, 48,0 КГц

MediaInfo

ОбщееПолное имя : T:\Мои раздачи\Царь-ракета\Царь-ракета (2008-2009)\Фильм 1. Атомная колыбель (2008).aviФормат : AVIФормат/Информация : Audio Video InterleaveРазмер файла : 359 МбайтПродолжительность : 27 м.Общий поток : 1838 Кбит/секПрограмма кодирования : VirtualDubMod 1.5.10.2 (build 2540/release)Библиотека кодирования : VirtualDubMod build 2540/release
ВидеоИдентификатор : 0Формат : MPEG-4 VisualПрофиль формата : Advanced Simple@L5Параметр BVOP формата : 3Параметр QPel формата : НетПараметр GMC формата : Без точки переходаПараметр матрицы формата : Default (H.263)Идентификатор кодека : XVIDИдентификатор кодека/Подсказка : XviDПродолжительность : 27 м.Битрейт : 1700 Кбит/секШирина : 720 пикселейВысота : 464 пикселяСоотношение сторон : 16:10Частота кадров : 25,000 кадров/секЦветовое пространство : YUVСубдискретизация насыщенности : 4:2:0Битовая глубина : 8 битТип развёртки : ПрогрессивнаяМетод сжатия : С потерямиБит/(Пиксели*Кадры) : 0.204Размер потока : 332 Мбайт (93%)Библиотека кодирования : XviD 1.2.1 (UTC 2008-12-04)
АудиоИдентификатор : 1Формат : MPEG AudioВерсия формата : Version 1Профиль формата : Layer 3Идентификатор кодека : 55Идентификатор кодека/Подсказка : MP3Продолжительность : 27 м.Вид битрейта : ПостоянныйБитрейт : 128 Кбит/секКаналы : 2 каналаЧастота : 48,0 КГцМетод сжатия : С потерямиРазмер потока : 25,0 Мбайт (7%)Выравнивание : Соединение по промежуткамПродолжительность промежутка : 40 мс. (1,00 видеокадр)Время предзагрузки промежутка : 504 мс.Библиотека кодирования : LAME3.98rНастройки программы : -m s -V 4 -q 2 -lowpass 17 -b 128

Скриншоты


_________________
Показать сообщения:    

Текущее время: Сегодня 00:12

Часовой пояс: GMT



Вы не можете начинать темы
Вы не можете отвечать на сообщения
Вы не можете редактировать свои сообщения
Вы не можете удалять свои сообщения
Вы не можете голосовать в опросах
Вы не можете прикреплять файлы к сообщениям
Вы не можете скачивать файлы