Важное объявление!
У Нас Все раздачи мультитрекерные, при нуле пиров в релизах, можете смело вставать на закачку!
 
Автор Сообщение

HUNTER

Стаж:
4 года 7 месяцев
Сообщений:
61460

Репутация: 101

[+] [-]
Вне форума [Профиль] [ЛС]

Царство небесное / Kingdom of Heaven / Theatrical Cut
Страна: США, Испания
Жанр: Приключения, история, боевик
Год выпуска: 2005
Продолжительность: 02:11:09
Перевод: Профессиональный (дублированный)
Перевод: Профессиональный (двухголосый, закадровый) Tycoon
Cубтитры: русские (blu-ray), русские (tycoon), английские
Оригинальная аудиодорожка: английский
Режиссер: Ридли Скотт / Ridley Scott
В ролях: Орландо Блум, Ева Грин, Лиам Нисон, Дэвид Тьюлис, Джереми Айронс, Эрик Эбони, Натали Кокс, Филип Гленистер, Мартин Хэнкок, Бронсон Уэбб, Кевин МакКидд, Николай Костер-Валдау, Стивен Робертсон, Мартон Чокаш, Александр Сиддинг, Велибор Топик, Майкл Шэйффер, Майкл Шин, Брендан Глисон, Нассер Мемарзиа, Джоко Ахола
Описание: Франция, конец XII века. Кузнец Балиан узнает, что приходится незаконнорожденным сыном крестоносцу сэру Годфри. После смерти жены его ничто не держит во Франции, и Балиан присоединяется к отцовскому походу в Святую Землю, хотя и не отличается пылкой верой в Бога. К несчастью, в пути сзр Годфри гибнет, едва успев посвятить сына в рыцари. Прибыв в Иерусалим, Балиан понимает, что в придачу к поместью ему досталось обязанность участвовать в запутанной местной политике. Конфликты интересов рвут на части слабое государство, а мусульманский владыка Саладин готовится вернуть себе Священный Город.
Доп. информация: Запись с канала Первый HD. Из видеоряда удалены все послерекламные вставки с названием фильма. Добавлены многоканальные дорожки и субтитры с BD. У HDTV наполнение кадра в основном больше чем у BD/DVD http://screenshotcomparison.com/comparison/77085
Сэмпл: http://multi-up.com/1112694
Тип релиза: HDTV 1080i
Контейнер: mkv
Видео: AVC, 1920x1080 (16/9), 25.000 fps, 11.8 Mbps (0.228 bit/pixel)
Аудио: AC-3, 48.0 KHz, 6 ch, 448 Kbps, CBR (Russian) - dub
Аудио 2: AC-3, 48.0 KHz, 6 ch, 448 Kbps, CBR (Russian) - dvo
Аудио 3: AC-3, 48.0 KHz, 6 ch, 448 Kbps, CBR (English)
Субтитры: softsub

MediaInfo

бщее
Уникальный идентификатор : 175269068455357750630749937805456482755 (0x83DB983FFBA55D3F842A5392F7B6A1C3)
Полное имя : M:\МОИ РАЗДАЧИ\Царство небесное.mkv
Формат : Matroska
Версия формата : Version 2
Размер файла : 12,6 Гбайт
Продолжительность : 2 ч. 18 м.
Общий поток : 13,0 Мбит/сек
Название фильма : Царство небесное / Kingdom of Heaven (2005)
Дата кодирования : UTC 2016-08-05 11:33:46
Программа кодирования : mkvmerge v8.2.0 ('World of Adventure') 64bit
Библиотека кодирования : libebml v1.3.1 + libmatroska v1.4.2
Видео
Идентификатор : 1
Формат : AVC
Формат/Информация : Advanced Video Codec
Профиль формата : Main@L4
Параметр CABAC формата : Да
Параметр ReFrames формата : 3 кадра
Идентификатор кодека : V_MPEG4/ISO/AVC
Продолжительность : 2 ч. 18 м.
Битрейт : 11,4 Мбит/сек
Ширина : 1920 пикселей
Высота : 1080 пикселей
Соотношение сторон : 16:9
Режим частоты кадров : Постоянный
Частота кадров : 25,000 кадров/сек
Стандарт вещания : Component
Цветовое пространство : YUV
Субдискретизация насыщенности : 4:2:0
Битовая глубина : 8 бит
Тип развёртки : Чересстрочная
Метод сохранения типа развёртки : Раздельные поля
Порядок развёртки : Верхнее поле первое
Бит/(Пиксели*Кадры) : 0.220
Размер потока : 11,1 Гбайт (88%)
Язык : Russian
Default : Да
Forced : Нет
Цветовой диапазон : Limited
Основные цвета : BT.709
Характеристики трансфера : BT.709
Коэффициенты матрицы : BT.709
Аудио #1
Идентификатор : 2
Формат : AC-3
Формат/Информация : Audio Coding 3
Расширение режима : CM (complete main)
Параметр Endianness формата : Big
Идентификатор кодека : A_AC3
Продолжительность : 2 ч. 18 м.
Вид битрейта : Постоянный
Битрейт : 448 Кбит/сек
Каналы : 6 каналов
Расположение каналов : Front: L C R, Side: L R, LFE
Частота : 48,0 КГц
Частота кадров : 31,250 кадров/сек (1536 spf)
Метод сжатия : С потерями
Размер потока : 444 Мбайт (3%)
Заголовок : Профессиональный (полное дублирование)
Язык : Russian
Default : Да
Forced : Нет
Аудио #2
Идентификатор : 3
Формат : AC-3
Формат/Информация : Audio Coding 3
Расширение режима : CM (complete main)
Параметр Endianness формата : Big
Идентификатор кодека : A_AC3
Продолжительность : 2 ч. 18 м.
Вид битрейта : Постоянный
Битрейт : 448 Кбит/сек
Каналы : 6 каналов
Расположение каналов : Front: L C R, Side: L R, LFE
Частота : 48,0 КГц
Частота кадров : 31,250 кадров/сек (1536 spf)
Метод сжатия : С потерями
Размер потока : 444 Мбайт (3%)
Заголовок : Профессиональный (двухголосый, закадровый) Tycoon
Язык : Russian
Default : Нет
Forced : Нет
Аудио #3
Идентификатор : 4
Формат : AC-3
Формат/Информация : Audio Coding 3
Расширение режима : CM (complete main)
Параметр Endianness формата : Big
Идентификатор кодека : A_AC3
Продолжительность : 2 ч. 18 м.
Вид битрейта : Постоянный
Битрейт : 448 Кбит/сек
Каналы : 6 каналов
Расположение каналов : Front: L C R, Side: L R, LFE
Частота : 48,0 КГц
Частота кадров : 31,250 кадров/сек (1536 spf)
Метод сжатия : С потерями
Размер потока : 444 Мбайт (3%)
Язык : English
Default : Нет
Forced : Нет
Текст #1
Идентификатор : 5
Формат : UTF-8
Идентификатор кодека : S_TEXT/UTF8
Идентификатор кодека/Информация : UTF-8 Plain Text
Заголовок : Blu-Ray
Язык : Russian
Default : Нет
Forced : Нет
Текст #2
Идентификатор : 6
Формат : UTF-8
Идентификатор кодека : S_TEXT/UTF8
Идентификатор кодека/Информация : UTF-8 Plain Text
Заголовок : Tycoon
Язык : Russian
Default : Нет
Forced : Нет
Текст #3
Идентификатор : 7
Формат : UTF-8
Идентификатор кодека : S_TEXT/UTF8
Идентификатор кодека/Информация : UTF-8 Plain Text
Язык : English
Default : Нет
Forced : Нет

Скриншоты

Торрент перезалит 5.08.16 - Из видеоряда удалены все послерекламные вставки с названием фильма. Добавлены многоканальные дорожки и субтитры с BD.

_________________
Показать сообщения:    

Текущее время: Сегодня 07:54

Часовой пояс: GMT



Вы не можете начинать темы
Вы не можете отвечать на сообщения
Вы не можете редактировать свои сообщения
Вы не можете удалять свои сообщения
Вы не можете голосовать в опросах
Вы не можете прикреплять файлы к сообщениям
Вы не можете скачивать файлы
Наши партнеры: интернет магазин Ивановского трикотажа textilla.ru