Ивановский Торрент трекер
Яндекс.Погода
 

[Цитировать]
HUNTER

Хэйвен / Haven
Год выпуска: 2013
Жанр: ужасы, фэнтези, триллер, драма, криминал, детектив
Выпущено: Канада, Big Motion Pictures, CanWest Global Television Network, Entertainment One, Piller, Segan, Shepherd, Universal Networks International
Продолжительность: 4x ~ 00:43:30
Перевод: Любительский (многоголосый) (GoldFilm)
Субтитры: Русские
Режиссер: Т.У. Пикок, Ли Роуз, Тим Соутэм, Фред Гербер, Роберт Либерман, Рейчел Тэлалей, Шоун Пиллер
В ролях: Эмили Роуз, Лукас Брайант, Эрик Бальфур, Ричард Донат, Джон Дансуорт, Николас Кэмпбелл, Стивен МакХэтти, Винесса Антуан, Мэри-Колин Чишолм, Глен Лефчак, Кэтлин Манро, Адам Коуплэнд, Джейсон Пристли
О фильме:
За основу взят сюжет из книги Стивена Кинга "The Colorado Kid" ("Дитя Колорадо"). В маленький город Хейвен приезжает агент ФБР Одри Паркер, чтобы расследовать смерть бывшего преступника. Из-за своего природного любопытства она попала в эпицентр этого необычного анклава, который, оказывается, издавна служил пристанищем для людей со сверхспособностями. Среди местных жителей города полицейский Натан Вурно, который стал напарником Одри, и загадочный и обаятельный мастер на все руки Дюк Крокер.

Релиз от ColdFilm
Качество: HDTVRip, WEB-DLRip
Видео кодек: XviD
Аудио кодек: AC3
Видео HDTVRip: 624x346 (1.80:1), 23.976 fps, XviD MPEG-4 ~1004 kbps avg, 0.19 bit/pixel
Видео WEB-DLRip:720x400 (1.80:1), 23.976 fps, XviD build 50 ~1778 kbps avg, 0.26 bit/pixel - 2-я серия
Аудио: 48 kHz, AC3 Dolby Digital, 2/0 (L,R) ch, ~192.00 kbps avg

MI -1 серия

General
Complete name : E:INTERNETHaven.S04Haven.S04E01.HDTVRip.avi
Format : AVI
Format/Info : Audio Video Interleave
File size : 367 MiB
Duration : 42mn 30s
Overall bit rate : 1 206 Kbps
Writing application : VirtualDubMod 1.5.10.2 (build 2542/release)
Writing library : VirtualDubMod build 2542/release
Video
ID : 0
Format : MPEG-4 Visual
Format profile : Advanced Simple@L5
Format settings, BVOP : Yes
Format settings, QPel : No
Format settings, GMC : No warppoints
Format settings, Matrix : Default (H.263)
Muxing mode : Packed bitstream
Codec ID : XVID
Codec ID/Hint : XviD
Duration : 42mn 30s
Bit rate : 1 005 Kbps
Width : 624 pixels
Height : 346 pixels
Display aspect ratio : 16:9
Frame rate : 23.976 fps
Color space : YUV
Chroma subsampling : 4:2:0
Bit depth : 8 bits
Scan type : Progressive
Bits/(Pixel*Frame) : 0.194
Stream size : 305 MiB (83%)
Writing library : XviD 64
Audio
ID : 1
Format : AC-3
Format/Info : Audio Coding 3
Mode extension : CM (complete main)
Codec ID : 2000
Duration : 42mn 30s
Bit rate mode : Constant
Bit rate : 192 Kbps
Channel(s) : 2 channels
Channel positions : Front: L R
Sampling rate : 48.0 KHz
Bit depth : 16 bits
Stream size : 58.4 MiB (16%)
Alignment : Split accross interleaves
Interleave, duration : 42 ms (1.00 video frame)
Interleave, preload duration : 500 ms

MI - 2-я серия

General
Complete name : E:INTERNETHaven.S04Haven.S04E02.WEBDLRip.avi
Format : AVI
Format/Info : Audio Video Interleave
File size : 602 MiB
Duration : 42mn 28s
Overall bit rate : 1 980 Kbps
Writing application : VirtualDubMod 1.5.10.2 (build 2542/release)
Writing library : VirtualDubMod build 2542/release
Video
ID : 0
Format : MPEG-4 Visual
Format profile : Advanced Simple@L5
Format settings, BVOP : Yes
Format settings, QPel : No
Format settings, GMC : No warppoints
Format settings, Matrix : Custom
Codec ID : XVID
Codec ID/Hint : XviD
Duration : 42mn 28s
Bit rate : 1 779 Kbps
Width : 720 pixels
Height : 400 pixels
Display aspect ratio : 16:9
Frame rate : 23.976 fps
Color space : YUV
Chroma subsampling : 4:2:0
Bit depth : 8 bits
Scan type : Progressive
Bits/(Pixel*Frame) : 0.258
Stream size : 540 MiB (90%)
Writing library : XviD 1.2.1 (UTC 2008-12-04)
Audio
ID : 1
Format : AC-3
Format/Info : Audio Coding 3
Mode extension : CM (complete main)
Codec ID : 2000
Duration : 42mn 28s
Bit rate mode : Constant
Bit rate : 192 Kbps
Channel(s) : 2 channels
Channel positions : Front: L R
Sampling rate : 48.0 KHz
Bit depth : 16 bits
Stream size : 58.3 MiB (10%)
Alignment : Split accross interleaves
Interleave, duration : 42 ms (1.00 video frame)
Interleave, preload duration : 500 ms

MI - 3-я серия

General
Complete name : E:INTERNETHaven.S04Haven.S04E03.HDTVRip.avi
Format : AVI
Format/Info : Audio Video Interleave
File size : 409 MiB
Duration : 42mn 56s
Overall bit rate : 1 333 Kbps
Writing application : VirtualDubMod 1.5.10.2 (build 2542/release)
Writing library : VirtualDubMod build 2542/release
Video
ID : 0
Format : MPEG-4 Visual
Format profile : Advanced Simple@L5
Format settings, BVOP : Yes
Format settings, QPel : No
Format settings, GMC : No warppoints
Format settings, Matrix : Default (H.263)
Muxing mode : Packed bitstream
Codec ID : XVID
Codec ID/Hint : XviD
Duration : 42mn 56s
Bit rate : 999 Kbps
Width : 624 pixels
Height : 352 pixels
Display aspect ratio : 16:9
Frame rate : 23.976 fps
Color space : YUV
Chroma subsampling : 4:2:0
Bit depth : 8 bits
Scan type : Progressive
Bits/(Pixel*Frame) : 0.190
Stream size : 307 MiB (75%)
Writing library : XviD 64
Audio #1
ID : 1
Format : MPEG Audio
Format version : Version 1
Format profile : Layer 3
Mode : Joint stereo
Codec ID : 55
Codec ID/Hint : MP3
Duration : 42mn 56s
Bit rate mode : Constant
Bit rate : 192 Kbps
Channel(s) : 2 channels
Sampling rate : 48.0 KHz
Stream size : 59.0 MiB (14%)
Alignment : Aligned on interleaves
Interleave, duration : 42 ms (1.00 video frame)
Interleave, preload duration : 504 ms
Audio #2
ID : 2
Format : MPEG Audio
Format version : Version 1
Format profile : Layer 3
Mode : Joint stereo
Mode extension : MS Stereo
Codec ID : 55
Codec ID/Hint : MP3
Duration : 42mn 56s
Bit rate mode : Constant
Bit rate : 128 Kbps
Channel(s) : 2 channels
Sampling rate : 48.0 KHz
Stream size : 39.3 MiB (10%)
Alignment : Aligned on interleaves
Interleave, duration : 42 ms (1.00 video frame)
Interleave, preload duration : 504 ms

MI - 4-я серия

General
Complete name : E:\INTERNET\Haven.S04\Haven.S04E04.HDTVRip.avi
Format : AVI
Format/Info : Audio Video Interleave
File size : 601 MiB
Duration : 42mn 26s
Overall bit rate : 1 978 Kbps
Writing application : VirtualDubMod 1.5.10.2 (build 2542/release)
Writing library : VirtualDubMod build 2542/release
Video
ID : 0
Format : MPEG-4 Visual
Format profile : Advanced Simple@L5
Format settings, BVOP : Yes
Format settings, QPel : No
Format settings, GMC : No warppoints
Format settings, Matrix : Default (H.263)
Codec ID : XVID
Codec ID/Hint : XviD
Duration : 42mn 26s
Bit rate : 1 699 Kbps
Width : 720 pixels
Height : 400 pixels
Display aspect ratio : 16:9
Frame rate : 23.976 fps
Color space : YUV
Chroma subsampling : 4:2:0
Bit depth : 8 bits
Scan type : Progressive
Bits/(Pixel*Frame) : 0.246
Stream size : 516 MiB (86%)
Writing library : XviD 1.2.1 (UTC 2008-12-04)
Audio
ID : 1
Format : AC-3
Format/Info : Audio Coding 3
Mode extension : CM (complete main)
Codec ID : 2000
Duration : 42mn 26s
Bit rate mode : Constant
Bit rate : 192 Kbps
Channel(s) : 2 channels
Channel positions : Front: L R
Sampling rate : 48.0 KHz
Bit depth : 16 bits
Stream size : 58.3 MiB (10%)
Alignment : Split accross interleaves

Скриншоты

Внимание! Раздача ведётся путём добавления новых серий!

Внимание! Раздача ведётся путём добавления новых серий; при каждом добавлении создается новый торрент. Чтобы начать докачку новой серии, пользователям необходимо сделать следующее:
(1) остановить скачивание,
(2) удалить старый торрент у себя из клиента (старые серии удалять не надо),
(3) скачать новый торрент и запустить его у себя в клиенте вместо старого, при этом указать клиенту путь в старую папку куда и должно происходить скачивание новых серий.
Ваш клиент при этом должен произвести хеширование (проверку) старой папки (если не производит сам - помогите ему сделать это), и будет докачивать только те серии которых у вас ещё нет. Старые серии при этом не удаляются, а продолжают раздаваться!
Eсли вы уже удалили старые серии, то предотвратить повторную закачку старых серий можно, отжав галочку в соответсвующих местах при запуске нового торрента.


Показать сообщения:    

Текущее время: 14-Дек 15:24

Часовой пояс: UTC ± 0


Вы не можете начинать темы
Вы не можете отвечать на сообщения
Вы не можете редактировать свои сообщения
Вы не можете удалять свои сообщения
Вы не можете голосовать в опросах
Вы не можете прикреплять файлы к сообщениям
Вы не можете скачивать файлы

!ВНИМАНИЕ!
Сайт не предоставляет электронные версии произведений, а занимается лишь коллекционированием и каталогизацией ссылок, присылаемых и публикуемых на форуме нашими читателями. Если вы являетесь правообладателем какого-либо представленного материала и не желаете, чтобы ссылка на него находилась в нашем каталоге, свяжитесь с нами, и мы незамедлительно удалим ее. Файлы для обмена на трекере предоставлены пользователями сайта, и администрация не несет ответственности за их содержание. Просьба не заливать файлы, защищенные авторскими правами, а также файлы нелегального содержания!