Важное объявление!
У Нас Все раздачи мультитрекерные, при нуле пиров в релизах, можете смело вставать на закачку!
 
Автор Сообщение

HUNTER

Стаж:
4 года 6 месяцев
Сообщений:
60910

Репутация: 101

[+] [-]
Вне форума [Профиль] [ЛС]

Хроники Хуаду: Лезвие розы / The Huadu Chronicles: Blade of the Rose / Fa dou daai jin-
Год выпуска: 2004
Страна: Гонконг, Китай
Жанр: фэнтези, боевик, комедия, приключения
Продолжительность: 01:45:53
Перевод: Профессиональный (полное дублирование)
Субтитры: Отсутствуют-Режиссер: Патрик Лун / Patrick Leung, Кори Юэнь / Corey Yuen
В ролях: Гиллиан Чун, Чарлин Чой, Донни Ен, Джейси Чан, Бо Лин Чен, Эдисон Чен, Тони Люн Ка Фай, Джеки Чан, Стивен Чунг, Дэниэл Ву-Описание: На мифической земле Хуаду правит жестокая императрица, и мужчины здесь находятся под властью женщин. Но императрица и ее главный евнух живут в ужасе перед пророчеством, которое гласит, что появится мальчик, который положит конец ее владычеству. Чтобы обезопасить свой трон, она приказывает своим воинам убивать каждого ребенка, похожего по описанию на мальчика из пророчества.
Чар — скромный мальчик, который рожден быть императором. Вместе со своим братом он пускается в невероятное эпическое путешествие. В пути их сопровождают женщины-воительницы и помогают волшебные камень и карта. А вскоре к друзьям присоединяется и непревзойденный фехтовальщик генерал Лоун, который поможет открыть им доступ к мистическим сокровищам и сразиться с Повелителем Брони…-Релиз:
Автор: sociolog_melvas
Качество: BDRip (источник: Diablo / BDRemux / 1080p)
Формат: AVI
Видео: 704x400 (1.76:1), 24.000 fps, XviD build 72 ~2051 kbps avg, 0.30 bit/pixel
Аудио #1: 48 kHz, AC3 Dolby Digital, 3/2 (L,C,R,l,r) + LFE ch, ~448.00 kbps avg dub
Аудио #2: 48 kHz, AC3 Dolby Digital, 3/2 (L,C,R,l,r) + LFE ch, ~448.00 kbps avg

Рейтинг

Рейтинг:

MediaInfo

General
Complete name : C:\!VиDе0з@пи(и\FиLьMы\Хроники Хуаду Лезвие розы [2004.DUAL.BDRip.XviD.AC3.-HQCLUB].avi
Format : AVI
Format/Info : Audio Video Interleave
Format profile : OpenDML
File size : 2.18 GiB
Duration : 1h 45mn
Overall bit rate : 2 954 Kbps
Movie name : Хроники Хуаду: Лезвие розы / The Huadu Chronicles: Blade of the Rose / Fa dou daai jin (2004) BDRip
Director : sociolog_melvas
Genre : фэнтези, боевик, комедия
Writing application : VirtualDubMod 1.5.10.2 (build 2540/release)
Copyright : http://hqclub.net/
Comment : 13.08.2012
Video
ID : 0
Format : MPEG-4 Visual
Format profile : Advanced Simple@L5
Format settings, BVOP : 1
Format settings, QPel : No
Format settings, GMC : No warppoints
Format settings, Matrix : Custom
Codec ID : XVID
Codec ID/Hint : XviD
Duration : 1h 45mn
Bit rate : 2 040 Kbps
Width : 704 pixels
Height : 400 pixels
Display aspect ratio : 16:9
Frame rate : 24.000 fps
Color space : YUV
Chroma subsampling : 4:2:0
Bit depth : 8 bits
Scan type : Progressive
Compression mode : Lossy
Bits/(Pixel*Frame) : 0.302
Stream size : 1.51 GiB (69%)
Writing library : XviD 72
Audio #1
ID : 1
Format : AC-3
Format/Info : Audio Coding 3
Mode extension : CM (complete main)
Format settings, Endianness : Big
Codec ID : 2000
Duration : 1h 45mn
Bit rate mode : Constant
Bit rate : 448 Kbps
Channel(s) : 6 channels
Channel positions : Front: L C R, Side: L R, LFE
Sampling rate : 48.0 KHz
Bit depth : 16 bits
Compression mode : Lossy
Stream size : 339 MiB (15%)
Alignment : Split accross interleaves
Interleave, duration : 42 ms (1.00 video frame)
Interleave, preload duration : 500 ms
Audio #2
ID : 2
Format : AC-3
Format/Info : Audio Coding 3
Mode extension : CM (complete main)
Format settings, Endianness : Big
Codec ID : 2000
Duration : 1h 45mn
Bit rate mode : Constant
Bit rate : 448 Kbps
Channel(s) : 6 channels
Channel positions : Front: L C R, Side: L R, LFE
Sampling rate : 48.0 KHz
Bit depth : 16 bits
Compression mode : Lossy
Stream size : 339 MiB (15%)
Alignment : Split accross interleaves
Interleave, duration : 42 ms (1.00 video frame)
Interleave, preload duration : 500 ms

Скриншоты






_________________
Показать сообщения:    

Текущее время: Сегодня 21:27

Часовой пояс: GMT



Вы не можете начинать темы
Вы не можете отвечать на сообщения
Вы не можете редактировать свои сообщения
Вы не можете удалять свои сообщения
Вы не можете голосовать в опросах
Вы не можете прикреплять файлы к сообщениям
Вы не можете скачивать файлы
Наши партнеры: интернет магазин Ивановского трикотажа textilla.ru