Важное объявление!
У Нас Все раздачи мультитрекерные, при нуле пиров в релизах, можете смело вставать на закачку!
Статистика раздачи
Размер:     |    Зарегистрирован:     |    Скачан:     |   
Нет
 
     
 
 
Автор Сообщение

HUNTER

Стаж:
5 лет
Сообщений:
68415

Репутация: 101

[+] [-]
Вне форума [Профиль] [ЛС]

Хроники Риддика: Темная ярость / The Chronicles of Riddick: Dark Fury-Страна: США
Жанр: мультфильм, короткометражка, фантастика, боевик
Продолжительность: 00:33:31
Год выпуска: 2004
Перевод: Профессиональный (многоголосый закадровый)
Субтитры: есть (2 варианта), английские
Оригинальная аудиодорожка: английский-Режиссёр: Питер Чунг / Peter Chung-Роли озвучивали: Вин Дизель, Риана Гриффит, Кит Дэвид, Роджер Л. Джексон, Тресс МакНилл, Ник Чинланд, Дуайт Шульц, Сарж, Джулия Флетчер, Хеди Барресс ...
Описание: Риддика захватывают наемные убийцы и теперь ему предстоит вступить в смертельную схватку против «солдат удачи» и ужасных монстров, скрывающихся в недрах космического корабля…-Доп. информация: КиноПоиск: 6.707 (2850) | IMDb: 6.70 (6788) | Сэмпл | Multi-Up-Качество: DVDRip [Источник]
Формат: AVI
Видео: 720x384 (1.88:1), 25 fps, XviD build 73 ~2325 kbps avg, 0.34 bit/pixel
Аудио 1: 48 kHz, AC3 Dolby Digital, 3/2 (L,C,R,l,r) + LFE ch, ~384 kbps RUS
Аудио 2: 48 kHz, AC3 Dolby Digital, 3/2 (L,C,R,l,r) + LFE ch, ~384 kbps ENG
Субтитры 1: Русские - DJB, agel
Субтитры 2: Русские - sokkra
Субтитры 3: Английские
-Пожалуйста, оставайтесь на раздаче как можно дольше

Подробные технические данные

Format : AVIFormat/Info : Audio Video InterleaveFile size : 745 MiBDuration : 33mn 31sOverall bit rate : 3 108 KbpsMovie name : Хроники Риддика - Тёмная яростьDirector : derdevil13Writing application : VirtualDubMod 1.5.10.3 | www.virtualdub-fr.org || (build 2550/release)
VideoID : 0Format : MPEG-4 VisualFormat profile : Advanced Simple@L5Format settings, BVOP : 2Format settings, QPel : NoFormat settings, GMC : No warppointsFormat settings, Matrix : CustomCodec ID : XVIDCodec ID/Hint : XviDDuration : 33mn 31sBit rate : 2 326 KbpsWidth : 720 pixelsHeight : 384 pixelsDisplay aspect ratio : 1.85:1Frame rate : 25.000 fpsColor space : YUVChroma subsampling : 4:2:0Bit depth : 8 bitsScan type : ProgressiveCompression mode : LossyBits/(Pixel*Frame) : 0.337Stream size : 558 MiB (75%)Writing library : XviD 73
Audio #1ID : 1Format : AC-3Format/Info : Audio Coding 3Mode extension : CM (complete main)Format settings, Endianness : BigCodec ID : 2000Duration : 33mn 31sBit rate mode : ConstantBit rate : 384 KbpsChannel(s) : 6 channelsChannel positions : Front: L C R, Side: L R, LFESampling rate : 48.0 KHzBit depth : 16 bitsCompression mode : LossyStream size : 92.1 MiB (12%)Alignment : Split accross interleavesInterleave, duration : 40 ms (1.00 video frame)Interleave, preload duration : 500 ms
Audio #2ID : 2Format : AC-3Format/Info : Audio Coding 3Mode extension : CM (complete main)Format settings, Endianness : BigCodec ID : 2000Duration : 33mn 31sBit rate mode : ConstantBit rate : 384 KbpsChannel(s) : 6 channelsChannel positions : Front: L C R, Side: L R, LFESampling rate : 48.0 KHzBit depth : 16 bitsCompression mode : LossyStream size : 92.1 MiB (12%)Alignment : Split accross interleavesInterleave, duration : 40 ms (1.00 video frame)Interleave, preload duration : 500 ms

Скриншоты


_________________
Показать сообщения:    

Текущее время: Сегодня 05:08

Часовой пояс: GMT



Вы не можете начинать темы
Вы не можете отвечать на сообщения
Вы не можете редактировать свои сообщения
Вы не можете удалять свои сообщения
Вы не можете голосовать в опросах
Вы не можете прикреплять файлы к сообщениям
Вы не можете скачивать файлы