Ивановский Торрент трекер
Яндекс.Погода
Статистика раздачи
Размер:  5.48 GB   |    Зарегистрирован:  1 год 9 месяцев   |    Скачан:  0 раз

Полного источника не было: Никогда

 
     
 
 
 

[Цитировать]
HUNTER

Храни её, любовь- -Страна: Россия
Жанр: мелодрама, криминал
Год выпуска: 2014
Производство: «Кинокомпания "Паламеда продакшн", Продюсерский центр "Фабула"»
Продолжительность: 01:30:49
Оригинальная аудиодорожка: русский
Cубтитры: нет-Режиссер: Сергей Винокуров-В ролях:
Анна Арефьева, Евгений Добряков, Анна Миклош, Юлия Кудояр, Юрий Чулков-Описание:
Принимая решение на полчаса подменить сестру Катю, бухгалтера благотворительного фонда, Зоя не догадывается, что очень скоро ее жизни будет угрожать реальная опасность: грабители нацелились на деньги фонда.
Девушку спасает человек по имени Илья. Сам он серьезно ранен. А ведь пуля предназначалась не ему. Зоя хочет теперь только одного: чтобы молодой человек поправился, но получает сообщение, что его больше нет. Однако оказывается, что Илья жив и, конечно, ищет Зою…-Возраст: 12+-Качество: HDTV (1080i)
Формат: TS
Видео кодек: AVC
Аудио кодек: MPEG Audio

Видео: AVC, 1920 х 1080 (16:9), 25,000 кадр/сек, 7 958 Кбит/сек, 0.154 bit/pixel
Аудио: MPEG Audio 2, 48000 Hz, 256 Kbps, 2 канала
-

MediaInfo

General
ID : 1 (0x1)
Complete name : D:\Раздачи\Храни её, любовь HDTV (1080i)\Hrani.ee.Lyubov.2014.HDTV.(1080i).MediaClub.ts
Format : MPEG-TS
File size : 5.48 GiB
Duration : 1h 30mn
Overall bit rate mode : Variable
Overall bit rate : 8 644 Kbps
Video
ID : 306 (0x132)
Menu ID : 1 (0x1)
Format : AVC
Format/Info : Advanced Video Codec
Format profile : High@L4
Format settings, CABAC : Yes
Format settings, ReFrames : 4 frames
Codec ID : 27
Duration : 1h 30mn
Bit rate : 7 958 Kbps
Width : 1 920 pixels
Height : 1 080 pixels
Display aspect ratio : 16:9
Frame rate : 25.000 fps
Standard : Component
Color space : YUV
Chroma subsampling : 4:2:0
Bit depth : 8 bits
Scan type : Interlaced
Scan type, store method : Separated fields
Scan order : Top Field First
Bits/(Pixel*Frame) : 0.154
Stream size : 5.05 GiB (92%)
Color range : Limited
Color primaries : BT.709
Transfer characteristics : BT.709
Matrix coefficients : BT.709
Audio
ID : 406 (0x196)
Menu ID : 1 (0x1)
Format : MPEG Audio
Format version : Version 1
Format profile : Layer 2
Codec ID : 3
Duration : 1h 30mn
Bit rate mode : Constant
Bit rate : 256 Kbps
Channel(s) : 2 channels
Sampling rate : 48.0 KHz
Compression mode : Lossy
Stream size : 166 MiB (3%)
Language : English

Скриншоты


-Раздаю до первых 5-ти скачавших, на раздачи не возвращаюсь...-
[iv-torrents.ru].t54836.torrent
Торрент: Зарегистрирован [ 2016-03-13 07:40 ] · 6AFF45FF5FA65AD90A5A321948F30D8A59E79905

Скачать .torrent

Скачать

28 KB

Статус: проверено
Скачан: 0 раз
Размер: 5.48 GB
terms.php


Показать сообщения:    

Текущее время: 17-Дек 06:10

Часовой пояс: UTC ± 0


Вы не можете начинать темы
Вы не можете отвечать на сообщения
Вы не можете редактировать свои сообщения
Вы не можете удалять свои сообщения
Вы не можете голосовать в опросах
Вы не можете прикреплять файлы к сообщениям
Вы можете скачивать файлы

!ВНИМАНИЕ!
Сайт не предоставляет электронные версии произведений, а занимается лишь коллекционированием и каталогизацией ссылок, присылаемых и публикуемых на форуме нашими читателями. Если вы являетесь правообладателем какого-либо представленного материала и не желаете, чтобы ссылка на него находилась в нашем каталоге, свяжитесь с нами, и мы незамедлительно удалим ее. Файлы для обмена на трекере предоставлены пользователями сайта, и администрация не несет ответственности за их содержание. Просьба не заливать файлы, защищенные авторскими правами, а также файлы нелегального содержания!