Храбрый Лягушонок / The Brave Frog (Майкл Рейнольдс / Michael Reynolds) [1989, приключения, детский, семейный, DVDRip-AVC] AVO (Иванов) + Eng :: Ивановский Торрент трекер
Важное объявление!
У Нас Все раздачи мультитрекерные, при нуле пиров в релизах, можете смело вставать на закачку!
Статистика раздачи
Размер:     |    Зарегистрирован:     |    Скачан:     |   
Нет
 
     
 
 
Автор Сообщение

HUNTER

Стаж:
4 года 11 месяцев
Сообщений:
66098

Репутация: 101

[+] [-]
Вне форума [Профиль] [ЛС]

Храбрый Лягушонок / The Brave Frog-
Страна: Япония, США
Жанр: приключения, детский, семейный
Продолжительность: 01:31:14
Год выпуска: 1989
Перевод: Авторский (одноголосый закадровый) - Михаил Иванов
Русские субтитры: нет-Режиссёр: Майкл Рейнольдс / Michael Reynolds
Роли озвучивали: Аксель Робертс, Нина Лав, Кэмми Луис, Риба Вест, Мерл Пирсон, Леонард Пайк, А. Грегори, Ричард Дин, Рей Майклс- | Релиз: -Описание: Мультфильм, созданный на основе японского мультсериала "Kerokko Demetan", повествует об истории маленького древесного лягушонка Джонатана и его лучшего друга Пуки, дочери главы Радужного Пруда, Леопольда. Злой и беспощадный, он запрещает ей водиться с выходцем из бедной семьи, попутно устраивая так, чтобы семья древесных лягушек не могла больше оставаться в Радужном Пруду. Джонатана и Пуки ждет множество опасных приключений, но для настоящей дружбы и любви нет никаких преград.-Доп. информация:
- За исходный DVD R1 большое спасибо Maidaneh.
- За исходную оцифровку перевода Михаила Иванова с VHS спасибо bora86bora.
- Работа со звуком и видео - xfiles.-Семпл: скачать-Качество: DVDRip-AVC
Формат: MKV
Видео: 698x480 (4:3) @ 636x480, 23.976 fps, AVC, ~3915 kbps, 0.489 bits/pixel
Аудио 1: Русский, 48.0 KHz, AC3, 1 ch, 192 kbps - Одноголосый закадровый | Михаил Иванов | VHS
Аудио 2: English, 48.0 KHz, AC3, 1 ch, 384 kbps
Субтитры: отсутствуют

Подробные технические данные

x264 log
x264 [info]: 698x480p 10:11 @ 24000/1001 fps (cfr)x264 [info]: using SAR=10/11x264 [info]: using cpu capabilities: MMX2 SSE2Fast SSSE3 SSE4.2 AVXx264 [info]: profile High, level 4.0x264 [info]: cabac=1 ref=16 deblock=1:-2:-1 analyse=0x3:0x133 me=umh subme=11 psy=1 fade_compensate=0.00 psy_rd=1.00:0.00 mixed_ref=1 me_range=48 chroma_me=1 trellis=2 8x8dct=1 cqm=0 deadzone=21,11 fast_pskip=0 chroma_qp_offset=-2 threads=12 lookahead_threads=3 sliced_threads=0 nr=0 decimate=1 interlaced=0 bluray_compat=0 constrained_intra=0 fgo=0 bframes=16 b_pyramid=2 b_adapt=2 b_bias=0 direct=3 weightb=1 open_gop=0 weightp=2 keyint=250 keyint_min=23 scenecut=40 intra_refresh=0 rc=crf mbtree=0 crf=19.7000 qcomp=0.60 qpmin=0 qpmax=69 qpstep=4 ip_ratio=1.40 pb_ratio=1.30 aq=1:0.90x264 [info]: frame I:1014 Avg QP:22.74 size: 45812x264 [info]: frame P:21038 Avg QP:23.67 size: 30485x264 [info]: frame B:109215 Avg QP:25.77 size: 18792x264 [info]: consecutive B-frames: 1.2% 0.9% 3.4% 8.9% 10.1% 29.8% 10.5% 7.0% 5.9% 4.6% 3.1% 4.9% 3.1% 1.7% 2.2% 0.9% 1.8%x264 [info]: mb I I16..4: 0.3% 94.2% 5.6%x264 [info]: mb P I16..4: 0.1% 31.3% 0.7% P16..4: 23.2% 30.2% 13.9% 0.6% 0.0% skip: 0.1%x264 [info]: mb B I16..4: 0.0% 8.7% 0.0% B16..8: 42.4% 25.8% 7.9% direct:10.5% skip: 4.6% L0:49.2% L1:39.2% BI:11.5%x264 [info]: 8x8 transform intra:98.4% inter:73.3%x264 [info]: direct mvs spatial:100.0% temporal:0.0%x264 [info]: coded y,uvDC,uvAC intra: 99.6% 90.9% 44.8% inter: 74.5% 56.2% 1.5%x264 [info]: i16 v,h,dc,p: 17% 35% 10% 38%x264 [info]: i8 v,h,dc,ddl,ddr,vr,hd,vl,hu: 5% 8% 10% 10% 14% 11% 15% 10% 16%x264 [info]: i4 v,h,dc,ddl,ddr,vr,hd,vl,hu: 5% 9% 3% 9% 16% 13% 18% 10% 17%x264 [info]: i8c dc,h,v,p: 36% 28% 17% 18%x264 [info]: Weighted P-Frames: Y:46.3% UV:27.3%x264 [info]: ref P L0: 29.3% 8.5% 14.4% 10.0% 7.5% 6.1% 5.2% 3.5% 3.1% 2.5% 2.2% 1.9% 1.8% 1.5% 1.4% 1.1%x264 [info]: ref B L0: 49.9% 15.3% 9.1% 5.6% 4.2% 3.7% 2.9% 2.1% 1.6% 1.5% 1.2% 1.2% 1.0% 0.5% 0.2%x264 [info]: ref B L1: 85.9% 14.1%x264 [info]: kb/s:3915.91x264 [info]: encoded 131267 frames, 10.84 fps, 3915.91 kb/s, duration 3:21:47.51
GeneralUnique ID : 253295629459203504007150765117570880169 (0xBE8EF6B8B30CAD2E95F5D6131F1112A9)Complete name : The.Brave.Frog.1989.DVDRip.x264-rutracker.xfiles.mkvFormat : MatroskaFormat version : Version 4 / Version 2File size : 2.92 GiBDuration : 1h 31mnOverall bit rate : 4 582 KbpsMovie name : The.Brave.Frog.1989.DVDRip.x264-rutracker.xfilesEncoded date : UTC 2014-08-25 14:40:18Writing application : mkvmerge v7.1.0 ('Good Love') 64bit built on Jul 27 2014 13:06:55Writing library : libebml v1.3.0 + libmatroska v1.4.1
VideoID : 1Format : AVCFormat/Info : Advanced Video CodecFormat profile : High@L4.0Format settings, CABAC : YesFormat settings, ReFrames : 16 framesCodec ID : V_MPEG4/ISO/AVCDuration : 1h 31mnBit rate : 3 915 KbpsWidth : 698 pixelsHeight : 480 pixelsDisplay aspect ratio : 4:3Frame rate mode : ConstantFrame rate : 23.976 fpsColor space : YUVChroma subsampling : 4:2:0Bit depth : 8 bitsScan type : ProgressiveBits/(Pixel*Frame) : 0.487Stream size : 2.50 GiB (85%)Title : http://rutracker.org/forum/viewtopic.php?t=4802945Writing library : x264 core 142 r2453kMod ea0ca51Encoding settings : cabac=1 / ref=16 / deblock=1:-2:-1 / analyse=0x3:0x133 / me=umh / subme=11 / psy=1 / fade_compensate=0.00 / psy_rd=1.00:0.00 / mixed_ref=1 /me_range=48 / chroma_me=1 / trellis=2 / 8x8dct=1 / cqm=0 / deadzone=21,11 / fast_pskip=0 / chroma_qp_offset=-2 / threads=12 / lookahead_threads=3 / sliced_threads=0 / nr=0 /decimate=1 / interlaced=0 / bluray_compat=0 / constrained_intra=0 / fgo=0 / bframes=16 / b_pyramid=2 / b_adapt=2 / b_bias=0 / direct=3 / weightb=1 / open_gop=0 / weightp=2 /keyint=250 / keyint_min=23 / scenecut=40 / intra_refresh=0 / rc=crf / mbtree=0 / crf=19.7000 / qcomp=0.60 / qpmin=0 / qpmax=69 / qpstep=4 / ip_ratio=1.40 / pb_ratio=1.30 / aq=1:0.90Language : EnglishDefault : YesForced : NoColor primaries : BT.470 System MTransfer characteristics : BT.470 System MMatrix coefficients : FCC 73.682
Audio #1ID : 2Format : AC-3Format/Info : Audio Coding 3Mode extension : CM (complete main)Format settings, Endianness : BigCodec ID : A_AC3Duration : 1h 31mnBit rate mode : ConstantBit rate : 192 KbpsChannel(s) : 1 channelChannel positions : Front: CSampling rate : 48.0 KHzBit depth : 16 bitsCompression mode : LossyStream size : 125 MiB (4%)Title : Одноголосый закадровый | Михаил ИвановLanguage : RussianDefault : YesForced : No
Audio #2ID : 3Format : AC-3Format/Info : Audio Coding 3Mode extension : CM (complete main)Format settings, Endianness : BigCodec ID : A_AC3Duration : 1h 31mnBit rate mode : ConstantBit rate : 384 KbpsChannel(s) : 1 channelChannel positions : Front: CSampling rate : 48.0 KHzBit depth : 16 bitsCompression mode : LossyStream size : 251 MiB (8%)Language : EnglishDefault : NoForced : No
Menu00:00:00.000 : 1. Pookie Finds Jonathon00:12:21.107 : 2. The Pond Boss00:21:54.847 : 3. Learning the Ropes00:32:43.428 : 4. The Loss of a Friend00:38:59.537 : 5. Try, Try Again00:43:30.975 : 6. A Close Call00:50:03.267 : 7. Mr. Carp00:54:42.579 : 8. Cat Attack01:04:34.003 : 9. A Loving Mother01:08:42.118 : 10. Mrs. Turtle01:14:51.220 : 11. The Egg01:26:09.731 : 12. A Little Magic01:30:04.065 : 13. End Credits

Скриншоты

Сравнение с исходником
Source DVD | Rip





_________________
Показать сообщения:    

Текущее время: Сегодня 15:56

Часовой пояс: GMT



Вы не можете начинать темы
Вы не можете отвечать на сообщения
Вы не можете редактировать свои сообщения
Вы не можете удалять свои сообщения
Вы не можете голосовать в опросах
Вы не можете прикреплять файлы к сообщениям
Вы не можете скачивать файлы