Важное объявление!
У Нас Все раздачи мультитрекерные, при нуле пиров в релизах, можете смело вставать на закачку!
 
Автор Сообщение

HUNTER

Стаж:
4 года 9 месяцев
Сообщений:
65021

Репутация: 101

[+] [-]
Вне форума [Профиль] [ЛС]

--Храброе сердце / Ritter Rost - Eisenhart und voll verbeult--«Приключения в тридесятом королевстве»--
Страна: Германия
Жанр: мультфильм, приключения, семейный
Продолжительность: 01:23:58
Год выпуска: 2013
Перевод: Профессиональный (дублированный) |Чистый звук| (Line)
Русские субтитры: нет-Режиссёр: Томас Боденштайн / Thomas Bodenstein, Хьюберт Вейланд / Hubert Weiland, Нина Велс / Nina Wels-Роли озвучивали: Рик Каваниан, Каролин Кебекус, Кристоф Мария Хербст, Том Герхардт, Детлеф Редингер, Дастин Земмельрогге, Хартмут Нойгебауер, Ульрих Фрэнк, Пьер Питерс-Арнольдс, Анита Хёфер
Описание: В одном сказочном королевстве, где есть мудрый король, прекрасная принцесса и храбрый рыцарь, как это всегда бывает в сказках, появился хитрый и коварный злодей, задумавший стать новым правителем. Единственный кто может помешать его планам — находчивый рыцарь Расти. Пусть пока у него не все получается, и многие не воспринимают его всерьез, он обязательно станет настоящим героем и вместе со своими верными друзьями спасет королевство.- -Качество: HDRip
Формат: AVI
Видео: XviD, 720x400, 23.976 fps, 1 937 Kbps
Аудио: AC-3, 48.0 KHz, 2 ch, 384 Kbps
Субтитры: отсутствуют-

Подробные технические данные

GeneralComplete name : E:\bd2\DVDRips\Hrabroe.Serdce.2013.D.HDRip.1400MB.aviFormat : AVIFormat/Info : Audio Video InterleaveFile size : 1.37 GiBDuration : 1h 23mnOverall bit rate : 2 330 KbpsWriting application : VirtualDubMod 1.5.10.2 (build 2540/release)Writing library : VirtualDubMod build 2540/release
VideoID : 0Format : MPEG-4 VisualFormat profile : Advanced Simple@L5Format settings, BVOP : 2Format settings, QPel : NoFormat settings, GMC : No warppointsFormat settings, Matrix : Default (MPEG)Codec ID : XVIDCodec ID/Hint : XviDDuration : 1h 23mnBit rate : 1 937 KbpsWidth : 720 pixelsHeight : 400 pixelsDisplay aspect ratio : 16:9Frame rate : 23.976 fpsColor space : YUVChroma subsampling : 4:2:0Bit depth : 8 bitsScan type : ProgressiveCompression mode : LossyBits/(Pixel*Frame) : 0.280Stream size : 1.14 GiB (83%)Writing library : XviD 1.2.1 (UTC 2008-12-04)
AudioID : 1Format : AC-3Format/Info : Audio Coding 3Mode extension : CM (complete main)Format settings, Endianness : BigCodec ID : 2000Duration : 1h 23mnBit rate mode : ConstantBit rate : 384 KbpsChannel(s) : 2 channelsChannel positions : Front: L RSampling rate : 48.0 KHzBit depth : 16 bitsCompression mode : LossyStream size : 231 MiB (16%)Alignment : Split accross interleavesInterleave, duration : 42 ms (1.00 video frame)Interleave, preload duration : 500 ms

Скриншоты




_________________
Показать сообщения:    

Текущее время: Сегодня 17:16

Часовой пояс: GMT



Вы не можете начинать темы
Вы не можете отвечать на сообщения
Вы не можете редактировать свои сообщения
Вы не можете удалять свои сообщения
Вы не можете голосовать в опросах
Вы не можете прикреплять файлы к сообщениям
Вы не можете скачивать файлы