Ивановский Торрент трекер
Яндекс.Погода
Статистика раздачи
Размер:  7.96 GB   |    Зарегистрирован:  1 год 9 месяцев   |    Скачан:  0 раз

Полного источника не было: Никогда

 
     
 
 
 

[Цитировать]
HUNTER

Храбрец / The Brave
Страна: США
Жанр: драма
Год выпуска: 1997
Продолжительность: 02:03:42
Перевод 1: Профессиональный (двухголосый закадровый)
Перевод 2: Авторский (одноголосый закадровый) Горчаков
Cубтитры: английские
Оригинальная аудиодорожка: английский-Режиссер: Джонни Депп / Johnny Depp-В ролях: Джонни Депп, Марлон Брандо, Маршалл Белл, Элпидия Каррильо, Фредерик Форрест, Кларенс Уильямс III, Макс Перлих, Луис Гузман, Коуди Лайтнинг, Николь Мансера-Описание: Моргантаун – огромная свалка на окраине американской цивилизации. Здесь в беспросветной нищете обитает семья Рафаэля. Маккарти – продюсер нового фильма, в котором он предполагает заснять натуральное убийство. Исполнителю главной роли обещан огромный гонорар. Рафаэль принимает предложение. До начала съемок осталось 7 дней…-Релиз от: by delia-Рип от SbR-Качество видео: BDRip | Sample
Формат видео: MKV
Видео: 1280x692 at 24 fps, x264@L4.1, 8079 kbps
Аудио 1: Russian: 48 kHz, AC3, 2/0 (C) ch, ~384.00 kbps avg |DVO|
Аудио 2: Russian: 48 kHz, AC3, 2/0 (C) ch, ~192.00 kbps avg |AVO|
Аудио 3: English: 48 kHz/16-bit, FLAC 2.0, ~556.00 kbps avg-

Дополнительно

Цитата:
  • Сохранены оригинальные чаптеры как на Blu-ray.

MediaInfo

Format                      : Matroska
Format version              : Version 4 / Version 2
File size                   : 7.96 GiB
Duration                    : 2h 3mn
Overall bit rate mode       : Variable
Overall bit rate            : 9 214 Kbps
Encoded date                : UTC 2016-03-08 05:00:55
Writing application         : mkvmerge v8.3.0 ('Over the Horizon') 64bit
Writing library             : libebml v1.3.1 + libmatroska v1.4.2
Cover                       : Yes
Attachments                 : cover.jpg
Video
ID                          : 1
Format                      : AVC
Format/Info                 : Advanced Video Codec
Format profile              : High@L4.1
Format settings, CABAC      : Yes
Format settings, ReFrames   : 9 frames
Codec ID                    : V_MPEG4/ISO/AVC
Duration                    : 2h 3mn
Bit rate                    : 8 079 Kbps
Width                       : 1 280 pixels
Height                      : 692 pixels
Display aspect ratio        : 1.85:1
Frame rate mode             : Constant
Frame rate                  : 24.000 fps
Color space                 : YUV
Chroma subsampling          : 4:2:0
Bit depth                   : 8 bits
Scan type                   : Progressive
Bits/(Pixel*Frame)          : 0.380
Stream size                 : 6.98 GiB (88%)
Writing library             : x264 core 148 r2665+53 6629127 t_mod_Custom [8-bit@all X86_64]
Encoding settings           : cabac=1 / ref=9 / deblock=1:-3:-3 / analyse=0x3:0x133 / me=umh / subme=10 / psy=1 / fade_compensate=0.00 / psy_rd=1.00:0.05 / mixed_ref=1 / me_range=24 / chroma_me=1 / trellis=2 / 8x8dct=1 / cqm=0 / deadzone=21,11 / fast_pskip=0 / chroma_qp_offset=-3 / threads=6 / lookahead_threads=1 / sliced_threads=0 / nr=0 / decimate=1 / interlaced=0 / bluray_compat=0 / constrained_intra=0 / fgo=0 / bframes=9 / b_pyramid=2 / b_adapt=2 / b_bias=0 / direct=3 / weightb=1 / open_gop=0 / weightp=2 / keyint=250 / keyint_min=24 / scenecut=40 / intra_refresh=0 / rc_lookahead=60 / rc=crf / mbtree=0 / crf=17.0000 / qcomp=0.60 / qpmin=0:0:0 / qpmax=69:69:69 / qpstep=4 / vbv_maxrate=62500 / vbv_bufsize=78125 / crf_max=0.0 / nal_hrd=none / filler=0 / ip_ratio=1.40 / pb_ratio=1.30 / aq=1:0.70 / aq-sensitivity=10.00 / aq-factor=1.00:1.00:1.00 / aq2=1:0.65 / aq2-sensitivity=15.00 / aq2-factor=1.00:1.00:1.00 / aq3=1:[0.60:0.60]:[0.60:0.60]:[0.60:0.60]:[0.60:0.60] / aq3-sensitivity=10.00 / aq3-factor=[1.00:1.00]:[1.00:1.00]:[1.00:1.00] / aq3-boundary=192:64:24
Language                    : English
Default                     : Yes
Forced                      : No
Color range                 : Limited
Color primaries             : BT.709
Transfer characteristics    : BT.709
Matrix coefficients         : BT.709
Audio #1
ID                          : 2
Format                      : AC-3
Format/Info                 : Audio Coding 3
Mode extension              : CM (complete main)
Format settings, Endianness : Big
Codec ID                    : A_AC3
Duration                    : 2h 3mn
Bit rate mode               : Constant
Bit rate                    : 384 Kbps
Channel(s)                  : 2 channels
Channel positions           : Front: L R
Sampling rate               : 48.0 KHz
Frame rate                  : 31.250 fps (1536 spf)
Compression mode            : Lossy
Stream size                 : 340 MiB (4%)
Title                       : Двухголосый закадровый
Language                    : Russian
Default                     : Yes
Forced                      : No
Audio #2
ID                          : 3
Format                      : AC-3
Format/Info                 : Audio Coding 3
Mode extension              : CM (complete main)
Format settings, Endianness : Big
Codec ID                    : A_AC3
Duration                    : 2h 3mn
Bit rate mode               : Constant
Bit rate                    : 192 Kbps
Channel(s)                  : 2 channels
Channel positions           : Front: L R
Sampling rate               : 48.0 KHz
Frame rate                  : 31.250 fps (1536 spf)
Compression mode            : Lossy
Stream size                 : 170 MiB (2%)
Title                       : Одноголосый закадровый, В.Горчаков
Language                    : Russian
Default                     : No
Forced                      : No
Audio #3
ID                          : 4
Format                      : FLAC
Format/Info                 : Free Lossless Audio Codec
Codec ID                    : A_FLAC
Duration                    : 2h 3mn
Bit rate mode               : Variable
Bit rate                    : 556 Kbps
Channel(s)                  : 2 channels
Channel positions           : Front: L R
Sampling rate               : 48.0 KHz
Frame rate                  : 11.719 fps (4096 spf)
Bit depth                   : 16 bits
Stream size                 : 492 MiB (6%)
Writing library             : libFLAC 1.2.1 (UTC 2007-09-17)
Language                    : English
Default                     : No
Forced                      : No
Text
ID                          : 5
Format                      : UTF-8
Codec ID                    : S_TEXT/UTF8
Codec ID/Info               : UTF-8 Plain Text
Duration                    : 1h 42mn
Bit rate                    : 30 bps
Count of elements           : 770
Stream size                 : 22.6 KiB (0%)
Language                    : English
Default                     : No
Forced                      : No
Menu
00:00:00.000                : en:00:00:00.000
00:09:42.958                : en:00:09:42.958
00:17:37.958                : en:00:17:37.958
00:28:24.666                : en:00:28:24.666
00:39:18.333                : en:00:39:18.333
00:55:09.958                : en:00:55:09.958
01:07:10.708                : en:01:07:10.708
01:15:19.041                : en:01:15:19.041
01:21:53.958                : en:01:21:53.958
01:28:45.708                : en:01:28:45.708
01:40:46.083                : en:01:40:46.083
01:48:27.083                : en:01:48:27.083

Скриншоты

[iv-torrents.ru].t54698.torrent
Торрент: Зарегистрирован [ 2016-03-13 07:34 ] · 426F439C5E4026B310596DC0C2372F3FF49E210B

Скачать .torrent

Скачать

40 KB

Статус: проверено
Скачан: 0 раз
Размер: 7.96 GB
terms.php
Похожие темы


Показать сообщения:    

Текущее время: 16-Дек 03:36

Часовой пояс: UTC ± 0


Вы не можете начинать темы
Вы не можете отвечать на сообщения
Вы не можете редактировать свои сообщения
Вы не можете удалять свои сообщения
Вы не можете голосовать в опросах
Вы не можете прикреплять файлы к сообщениям
Вы можете скачивать файлы

!ВНИМАНИЕ!
Сайт не предоставляет электронные версии произведений, а занимается лишь коллекционированием и каталогизацией ссылок, присылаемых и публикуемых на форуме нашими читателями. Если вы являетесь правообладателем какого-либо представленного материала и не желаете, чтобы ссылка на него находилась в нашем каталоге, свяжитесь с нами, и мы незамедлительно удалим ее. Файлы для обмена на трекере предоставлены пользователями сайта, и администрация не несет ответственности за их содержание. Просьба не заливать файлы, защищенные авторскими правами, а также файлы нелегального содержания!