Ивановский Торрент трекер
Яндекс.Погода
 

[Цитировать]
mihis

Храбрец / The Brave
Год выпуска: 1997
Страна: США, Acappella Pictures, Brave Pictures Inc., Jeremy Thomas Productions, Majestic Films International
Жанр: Драма
Продолжительность: 01:58:16
Перевод: Профессиональный (многоголосый, закадровый) + Авторский (одноголосый закадровый) В.Горчаков + Оригинал
Субтитры: Нет
Режиссер: Джонни Депп
В ролях: Джонни Депп, Марлон Брандо, Маршалл Белл, Элпидия Каррильо, Фредерик Форрест, Кларенс Уильямс III, Макс Перлих, Луис Гузман, Коуди Лайтнинг, Николь Мансера, Флойд 'Ред Кроу' Уэстермен, Пепе Серна, Люпе Онтиверос, Алексис Крус, Чак Э. Уайсс, Бак Холлэнд, Игги Поп, Триша Весси, Тришиа Питерс, Джек Полик, Сэм Саркар, Джефф Джонсон, Шон Мансера
Описание: Рафаэл живет на огромной свалке вместе с женой и двумя детьми. Он отсидел, работы ему не видать, их дом - маленькая каморка, а за водой, чтобы помыться, приходится ходить к грязному ручью, где плавает мусор. Богатый старый мужчина предлагает парню умереть в пыточном кресле за 50000$, и Рафаэл соглашается, получив неделю отсрочки. За эти дни он пытается привести свои дела в порядок, становясь из никчемной обузы отцом своих детей и мужем своей женщины, чтобы потом отправиться навстречу смерти перед телевизионной камерой.

Качество: DVDRip
Формат: AVI
Видео кодек: XviD
Аудио кодек: AC3
Видео: 704x384 (1.83:1), 25 fps, XviD MPEG-4 ~1877 kbps avg, 0.28 bit/pixel
Аудио: 48 kHz, AC3 Dolby Digital, 3/2 (L,C,R,l,r) + LFE ch, ~384 kbps MVO
Аудио: 48 kHz, AC3 Dolby Digital, 2/0 (L,R) ch, ~192 kbps AVO, Eng

Награды

Каннский кинофестиваль, 1997 год
Номинации (1):
Золотая пальмовая ветвь

MediaInfo

Complete name : D:\Video\The.Brave.1997.dvdrip_[2.18]_[teko].avi
Format : AVI
Format/Info : Audio Video Interleave
Format profile : OpenDML
File size : 2.19 GiB
Duration : 1h 58mn
Overall bit rate : 2 653 Kbps
Writing application : VirtualDubMod 1.5.10.2 (build 2540/release)
Writing library : VirtualDubMod build 2540/release
Video
ID : 0
Format : MPEG-4 Visual
Format profile : Advanced Simple@L5
Format settings, BVOP : 1
Format settings, QPel : No
Format settings, GMC : No warppoints
Format settings, Matrix : Default (MPEG)
Codec ID : XVID
Codec ID/Hint : XviD
Duration : 1h 58mn
Bit rate : 1 860 Kbps
Width : 704 pixels
Height : 384 pixels
Display aspect ratio : 1.85:1
Frame rate : 25.000 fps
Color space : YUV
Chroma subsampling : 4:2:0
Bit depth : 8 bits
Scan type : Progressive
Compression mode : Lossy
Bits/(Pixel*Frame) : 0.275
Stream size : 1.54 GiB (70%)
Writing library : XviD 1.2.1 (UTC 2008-12-04)
Audio #1
ID : 1
Format : AC-3
Format/Info : Audio Coding 3
Mode extension : CM (complete main)
Format settings, Endianness : Big
Codec ID : 2000
Duration : 1h 58mn
Bit rate mode : Constant
Bit rate : 384 Kbps
Channel(s) : 6 channels
Channel positions : Front: L C R, Side: L R, LFE
Sampling rate : 48.0 KHz
Bit depth : 16 bits
Compression mode : Lossy
Stream size : 325 MiB (14%)
Alignment : Split accross interleaves
Interleave, duration : 40 ms (1.00 video frame)
Interleave, preload duration : 500 ms
Audio #2
ID : 2
Format : AC-3
Format/Info : Audio Coding 3
Mode extension : CM (complete main)
Format settings, Endianness : Big
Codec ID : 2000
Duration : 1h 58mn
Bit rate mode : Constant
Bit rate : 192 Kbps
Channel(s) : 2 channels
Channel positions : Front: L R
Sampling rate : 48.0 KHz
Bit depth : 16 bits
Compression mode : Lossy
Stream size : 162 MiB (7%)
Alignment : Split accross interleaves
Interleave, duration : 40 ms (1.00 video frame)
Interleave, preload duration : 500 ms
Audio #3
ID : 3
Format : AC-3
Format/Info : Audio Coding 3
Format profile : Dolby Digital
Mode extension : CM (complete main)
Format settings, Endianness : Big
Codec ID : 2000
Duration : 1h 58mn
Bit rate mode : Constant
Bit rate : 192 Kbps
Channel(s) : 2 channels
Channel positions : Front: L R
Sampling rate : 48.0 KHz
Bit depth : 16 bits
Compression mode : Lossy
Stream size : 162 MiB (7%)
Alignment : Split accross interleaves
Interleave, duration : 40 ms (1.00 video frame)
Interleave, preload duration : 500 ms


Показать сообщения:    

Текущее время: 18-Дек 14:55

Часовой пояс: UTC ± 0


Вы не можете начинать темы
Вы не можете отвечать на сообщения
Вы не можете редактировать свои сообщения
Вы не можете удалять свои сообщения
Вы не можете голосовать в опросах
Вы не можете прикреплять файлы к сообщениям
Вы не можете скачивать файлы

!ВНИМАНИЕ!
Сайт не предоставляет электронные версии произведений, а занимается лишь коллекционированием и каталогизацией ссылок, присылаемых и публикуемых на форуме нашими читателями. Если вы являетесь правообладателем какого-либо представленного материала и не желаете, чтобы ссылка на него находилась в нашем каталоге, свяжитесь с нами, и мы незамедлительно удалим ее. Файлы для обмена на трекере предоставлены пользователями сайта, и администрация не несет ответственности за их содержание. Просьба не заливать файлы, защищенные авторскими правами, а также файлы нелегального содержания!