Важное объявление!
У Нас Все раздачи мультитрекерные, при нуле пиров в релизах, можете смело вставать на закачку!
 
Автор Сообщение

HUNTER

Стаж:
4 года 8 месяцев
Сообщений:
62003

Репутация: 101

[+] [-]
Вне форума [Профиль] [ЛС]

Хочется жить / Желание жить / Chce sie zyc / Life Feels Good-
Страна: Польша
Студия: Tramway Film Studio
Жанр: Драма
Год выпуска: 2013
Продолжительность: 01:47:05-Перевод: Одноголосый закадровый [Lenape]
Cубтитры: русские, английские, французские
Оригинальная аудиодорожка: польский-Режиссер: Мацей Пепжица / Maciej Pieprzyca-В ролях: Давид Огродник, Камиль Ткач, Дорота Колак, Аркадиуш Якубик, Анна Нехребецка, Катажина Завадска, Хелена Суецка, Миколай Рознерски-Описание: Главный герой, Матеуш, болен ДЦП. Не говорит, не ходит, нет с ним контакта. Доктора поставили диагноз: до конца жизни Матеуш будет растением. Страшный диагноз, как оказалось, не до конца правильный. Никогда не сдаваться - так учил Матеуша отец.-Доп. информация: за исходный DVD9 спасибо Andrei Stalker 2345
Русская звуковая дорожка и русские субтитры включаются с пульта плеера!

Бонусы: дополнительные материалы включают: не вошедшие в фильм сцены, интервью с актерами, трейлер фильма, анонсы новых фильмов - все на польском языке
Меню: есть, язык польский, анимированное, озвученное-Sample | IMDB | КиноПоиск-Тип релиза: DVD9 (Custom)
Контейнер: DVD-Video-Видео: PAL 16:9 (720x576) VBR Auto Letterboxed
Аудио 1: AC3, 3/2+LFE ch, 448Kbps, Delay 0 mSec [Original_Pol]
Аудио 2: AC3, 2/0 ch, 192Kbps, Delay 0 mSec [Original_Pol]
Аудио 3: AC3, 3/2+LFE ch, 448Kbps, Delay 0 mSec [Russian_VO]-Релиз группы: -

Используемое ПО
1. PgcDemux - разборка оригинального DVD;
2. MuxMan - сборка DVD;
3. DVDReMake Pro - финальный проект.

DVDInfo
Title:
Size: 7.41 Gb ( 7 765 868 KBytes ) - DVD-9
Enabled regions: 1, 2, 3, 4, 5, 6
VTS_01 :
Play Length:
Video: PAL 16:9 (720x576) VBR, Auto Letterboxed
Audio:
Polish (Dolby AC3, 2 ch)
VTS_02 :
Play Length: 01:47:05
Video: PAL 16:9 (720x576) VBR, Auto Letterboxed
Audio:
Polish (Dolby AC3, 6 ch)
Polish (Dolby AC3, 2 ch)
Russian (Dolby AC3, 6 ch)
Subtitles:
English
Francais
Russian
VTS_03 :
Play Length: 00:02:20
Video: PAL 16:9 (720x576) VBR, Auto Letterboxed
Audio:
Polish (Dolby AC3, 2 ch)
VTS_04 :
Play Length: 00:03:11
Video: PAL 16:9 (720x576) VBR, Auto Letterboxed
Audio:
Polish (Dolby AC3, 2 ch)
VTS_05 :
Play Length: 00:03:09
Video: PAL 16:9 (720x576) VBR, Auto Letterboxed
Audio:
Polish (Dolby AC3, 2 ch)
VTS_06 :
Play Length: 00:02:27
Video: PAL 16:9 (720x576) VBR, Auto Letterboxed
Audio:
Polish (Dolby AC3, 2 ch)
VTS_07 :
Play Length: 00:02:28
Video: PAL 16:9 (720x576) VBR, Auto Letterboxed
Audio:
Polish (Dolby AC3, 2 ch)
VTS_08 :
Play Length: 00:02:24
Video: PAL 16:9 (720x576) VBR, Auto Letterboxed
Audio:
English (Dolby AC3, 2 ch)
VTS_09 :
Play Length: 00:02:00
Video: PAL 16:9 (720x576) VBR, Auto Letterboxed
Audio:
Svenska (Dolby AC3, 2 ch)
VTS_10 :
Play Length: 00:02:10
Video: PAL 16:9 (720x576) VBR, Auto Letterboxed
Audio:
English (Dolby AC3, 2 ch)
VTS_11 :
Play Length: 00:02:05
Video: PAL 16:9 (720x576) VBR, Auto Letterboxed
Audio:
Polish (Dolby AC3, 2 ch)
VTS_12 :
Play Length: 00:35:50+00:01:29+00:02:35+00:01:17+00:02:52+00:01:07+00:00:44+00:02:10+00:04:12+00:01:02+00:01:55+00:07:04+00:01:13+00:04:46+00:01:22
Video: PAL 16:9 (720x576) VBR, Auto Letterboxed
Audio:
Polish (Dolby AC3, 2 ch)
Menu Video:
NTSC 4:3 (720x480) VBR
Auto Pan&Scan, Auto Letterboxed
Menu Polish Language Unit :
Root Menu
Subpicture Menu
Audio Menu
MediaInfo
General
Complete name : D:\Мои релизы\Chce sie zyc [DVD9]\VIDEO_TS\VIDEO_TS.BUP
Format : DVD Video
Format profile : Menu
File size : 18.0 KiB
Video
ID : 224 (0xE0)
Format : MPEG Video
Format version : Version 1
Bit rate mode : Variable
Width : 720 pixels
Height : 480 pixels
Display aspect ratio : 4:3
Frame rate : 29.970 fps
Standard : NTSC
Compression mode : Lossy
General
Complete name : D:\Мои релизы\Chce sie zyc [DVD9]\VIDEO_TS\VIDEO_TS.IFO
Format : DVD Video
Format profile : Menu
File size : 18.0 KiB
Video
ID : 224 (0xE0)
Format : MPEG Video
Format version : Version 1
Bit rate mode : Variable
Width : 720 pixels
Height : 480 pixels
Display aspect ratio : 4:3
Frame rate : 29.970 fps
Standard : NTSC
Compression mode : Lossy
General
Complete name : D:\Мои релизы\Chce sie zyc [DVD9]\VIDEO_TS\VTS_01_0.BUP
Format : DVD Video
Format profile : Program
File size : 20.0 KiB
Duration : 480ms
Overall bit rate : 341 Kbps
Video
ID : 224 (0xE0)
Format : MPEG Video
Format version : Version 2
Duration : 480ms
Bit rate mode : Variable
Width : 720 pixels
Height : 576 pixels
Display aspect ratio : 16:9
Frame rate : 25.000 fps
Standard : PAL
Compression mode : Lossy
Audio
ID : 128 (0x80)
Format : AC-3
Format/Info : Audio Coding 3
Duration : 480ms
Channel(s) : 2 channels
Sampling rate : 48.0 KHz
Compression mode : Lossy
Language : Polish
Menu #1
Duration : 480ms
00:00:00.000 : Chapter 1
List (Audio) : 0
Menu #2
Duration : 480ms
00:00:00.000 : Chapter 1
List (Audio) : 0
Menu #3
General
Complete name : D:\Мои релизы\Chce sie zyc [DVD9]\VIDEO_TS\VTS_01_0.IFO
Format : DVD Video
Format profile : Program
File size : 20.0 KiB
Duration : 480ms
Overall bit rate : 341 Kbps
Video
ID : 224 (0xE0)
Format : MPEG Video
Format version : Version 2
Duration : 480ms
Bit rate mode : Variable
Width : 720 pixels
Height : 576 pixels
Display aspect ratio : 16:9
Frame rate : 25.000 fps
Standard : PAL
Compression mode : Lossy
Audio
ID : 128 (0x80)
Format : AC-3
Format/Info : Audio Coding 3
Duration : 480ms
Channel(s) : 2 channels
Sampling rate : 48.0 KHz
Compression mode : Lossy
Language : Polish
Menu #1
Duration : 480ms
00:00:00.000 : Chapter 1
List (Audio) : 0
Menu #2
Duration : 480ms
00:00:00.000 : Chapter 1
List (Audio) : 0
Menu #3
General
Complete name : D:\Мои релизы\Chce sie zyc [DVD9]\VIDEO_TS\VTS_01_0.VOB
Format : MPEG-PS
File size : 10.0 KiB
Duration : 40ms
Overall bit rate : 2 048 Kbps
Video
ID : 224 (0xE0)
Format : MPEG Video
Format version : Version 2
Format profile : Main@Main
Format settings, BVOP : No
Format settings, Matrix : Default
Duration : 40ms
Bit rate mode : Constant
Bit rate : 8 000 Kbps
Width : 720 pixels
Height : 576 pixels
Display aspect ratio : 16:9
Frame rate : 25.000 fps
Standard : PAL
Color space : YUV
Chroma subsampling : 4:2:0
Bit depth : 8 bits
Scan type : Progressive
Scan order : Top Field First
Compression mode : Lossy
Bits/(Pixel*Frame) : 0.772
Stream size : 39.1 KiB
Menu
General
Complete name : D:\Мои релизы\Chce sie zyc [DVD9]\VIDEO_TS\VTS_01_1.VOB
Format : MPEG-PS
File size : 20.0 KiB
Duration : 40ms
Overall bit rate : 4 096 Kbps
Video
ID : 224 (0xE0)
Format : MPEG Video
Format version : Version 2
Format profile : Main@Main
Format settings, BVOP : No
Format settings, Matrix : Default
Format settings, GOP : N=1
Duration : 40ms
Bit rate mode : Constant
Bit rate : 8 000 Kbps
Width : 720 pixels
Height : 576 pixels
Display aspect ratio : 16:9
Frame rate : 25.000 fps
Standard : PAL
Color space : YUV
Chroma subsampling : 4:2:0
Bit depth : 8 bits
Scan type : Progressive
Scan order : Top Field First
Compression mode : Lossy
Bits/(Pixel*Frame) : 0.772
Stream size : 39.1 KiB
Menu
General
Complete name : D:\Мои релизы\Chce sie zyc [DVD9]\VIDEO_TS\VTS_02_0.BUP
Format : DVD Video
Format profile : Program
File size : 86.0 KiB
Duration : 1h 47mn
Overall bit rate : 109 bps
Video
ID : 224 (0xE0)
Format : MPEG Video
Format version : Version 2
Duration : 1h 47mn
Bit rate mode : Variable
Width : 720 pixels
Height : 576 pixels
Display aspect ratio : 16:9
Frame rate : 25.000 fps
Standard : PAL
Compression mode : Lossy
Audio #1
ID : 128 (0x80)
Format : AC-3
Format/Info : Audio Coding 3
Duration : 1h 47mn
Channel(s) : 6 channels
Sampling rate : 48.0 KHz
Compression mode : Lossy
Language : Polish
Audio #2
ID : 129 (0x81)
Format : AC-3
Format/Info : Audio Coding 3
Duration : 1h 47mn
Channel(s) : 2 channels
Sampling rate : 48.0 KHz
Compression mode : Lossy
Language : Polish
Audio #3
ID : 130 (0x82)
Format : AC-3
Format/Info : Audio Coding 3
Duration : 1h 47mn
Channel(s) : 6 channels
Sampling rate : 48.0 KHz
Compression mode : Lossy
Language : Russian
Text #1
ID : 32 (0x20)
Format : RLE
Format/Info : Run-length encoding
Bit depth : 2 bits
Language : English
Text #2
ID : 33 (0x21)
Format : RLE
Format/Info : Run-length encoding
Bit depth : 2 bits
Language : French
Text #3
ID : 34 (0x22)
Format : RLE
Format/Info : Run-length encoding
Bit depth : 2 bits
Language : Russian
Menu
Duration : 1h 47mn
00:00:00.000 : Chapter 1
00:08:17.400 : Chapter 2
00:16:07.120 : Chapter 3
00:28:24.160 : Chapter 4
00:37:39.560 : Chapter 5
00:45:52.640 : Chapter 6
00:54:24.240 : Chapter 7
01:03:02.560 : Chapter 8
01:11:29.360 : Chapter 9
01:22:14.640 : Chapter 10
01:34:14.680 : Chapter 11
01:43:07.760 : Chapter 12
01:47:04.640 : Chapter 13
List (Audio) : 0 / 1 / 2
List (Subtitles 4/3) : 0 / 0 / 0
List (Subtitles Wide) : 0 / 1 / 2
List (Subtitles Letterbox) : 0 / 1 / 2
List (Subtitles Pan&Scan) : 0 / 0 / 0
General
Complete name : D:\Мои релизы\Chce sie zyc [DVD9]\VIDEO_TS\VTS_02_0.IFO
Format : DVD Video
Format profile : Program
File size : 86.0 KiB
Duration : 1h 47mn
Overall bit rate : 109 bps
Video
ID : 224 (0xE0)
Format : MPEG Video
Format version : Version 2
Duration : 1h 47mn
Bit rate mode : Variable
Width : 720 pixels
Height : 576 pixels
Display aspect ratio : 16:9
Frame rate : 25.000 fps
Standard : PAL
Compression mode : Lossy
Audio #1
ID : 128 (0x80)
Format : AC-3
Format/Info : Audio Coding 3
Duration : 1h 47mn
Channel(s) : 6 channels
Sampling rate : 48.0 KHz
Compression mode : Lossy
Language : Polish
Audio #2
ID : 129 (0x81)
Format : AC-3
Format/Info : Audio Coding 3
Duration : 1h 47mn
Channel(s) : 2 channels
Sampling rate : 48.0 KHz
Compression mode : Lossy
Language : Polish
Audio #3
ID : 130 (0x82)
Format : AC-3
Format/Info : Audio Coding 3
Duration : 1h 47mn
Channel(s) : 6 channels
Sampling rate : 48.0 KHz
Compression mode : Lossy
Language : Russian
Text #1
ID : 32 (0x20)
Format : RLE
Format/Info : Run-length encoding
Bit depth : 2 bits
Language : English
Text #2
ID : 33 (0x21)
Format : RLE
Format/Info : Run-length encoding
Bit depth : 2 bits
Language : French
Text #3
ID : 34 (0x22)
Format : RLE
Format/Info : Run-length encoding
Bit depth : 2 bits
Language : Russian
Menu
Duration : 1h 47mn
00:00:00.000 : Chapter 1
00:08:17.400 : Chapter 2
00:16:07.120 : Chapter 3
00:28:24.160 : Chapter 4
00:37:39.560 : Chapter 5
00:45:52.640 : Chapter 6
00:54:24.240 : Chapter 7
01:03:02.560 : Chapter 8
01:11:29.360 : Chapter 9
01:22:14.640 : Chapter 10
01:34:14.680 : Chapter 11
01:43:07.760 : Chapter 12
01:47:04.640 : Chapter 13
List (Audio) : 0 / 1 / 2
List (Subtitles 4/3) : 0 / 0 / 0
List (Subtitles Wide) : 0 / 1 / 2
List (Subtitles Letterbox) : 0 / 1 / 2
List (Subtitles Pan&Scan) : 0 / 0 / 0
General
Complete name : D:\Мои релизы\Chce sie zyc [DVD9]\VIDEO_TS\VTS_02_0.VOB
Format : MPEG-PS
File size : 109 MiB
Duration : 30s 80ms
Overall bit rate : 30.3 Mbps
Video
ID : 224 (0xE0)
Format : MPEG Video
Format version : Version 2
Format profile : Main@Main
Format settings, BVOP : Yes
Format settings, Matrix : Default
Format settings, GOP : M=3, N=12
Bit rate mode : Constant
Bit rate : 29.5 Mbps
Nominal bit rate : 7 000 Kbps
Width : 720 pixels
Height : 576 pixels
Display aspect ratio : 16:9
Frame rate : 25.000 fps
Standard : PAL
Color space : YUV
Chroma subsampling : 4:2:0
Bit depth : 8 bits
Scan type : Progressive
Compression mode : Lossy
Bits/(Pixel*Frame) : 2.842
Audio
ID : 128 (0x80)
Format : AC-3
Format/Info : Audio Coding 3
Mode extension : CM (complete main)
Duration : 30s 80ms
Bit rate mode : Constant
Bit rate : 192 Kbps
Channel(s) : 2 channels
Channel positions : Front: L R
Sampling rate : 48.0 KHz
Bit depth : 16 bits
Compression mode : Lossy
Video delay : -80ms
Stream size : 705 KiB (1%)
Text #1
ID : 32 (0x20)
Format : RLE
Format/Info : Run-length encoding
Video delay : -80ms
Text #2
ID : 33 (0x21)
Format : RLE
Format/Info : Run-length encoding
Video delay : -80ms
Menu
General
Complete name : D:\Мои релизы\Chce sie zyc [DVD9]\VIDEO_TS\VTS_02_1.VOB
Format : MPEG-PS
File size : 1 024 MiB
Duration : 20mn 14s
Overall bit rate : 7 073 Kbps
Video
ID : 224 (0xE0)
Format : MPEG Video
Format version : Version 2
Format profile : Main@Main
Format settings, BVOP : Yes
Format settings, Matrix : Default
Duration : 20mn 14s
Bit rate mode : Variable
Bit rate : 5 844 Kbps
Nominal bit rate : 8 200 Kbps
Width : 720 pixels
Height : 576 pixels
Display aspect ratio : 16:9
Frame rate : 25.000 fps
Standard : PAL
Color space : YUV
Chroma subsampling : 4:2:0
Bit depth : 8 bits
Scan type : Progressive
Scan order : Top Field First
Compression mode : Lossy
Bits/(Pixel*Frame) : 0.564
Stream size : 846 MiB (83%)
Audio #1
ID : 128 (0x80)
Format : AC-3
Format/Info : Audio Coding 3
Mode extension : CM (complete main)
Duration : 20mn 14s
Bit rate mode : Constant
Bit rate : 448 Kbps
Channel(s) : 6 channels
Channel positions : Front: L C R, Side: L R, LFE
Sampling rate : 48.0 KHz
Bit depth : 16 bits
Compression mode : Lossy
Stream size : 64.8 MiB (6%)
Audio #2
ID : 129 (0x81)
Format : AC-3
Format/Info : Audio Coding 3
Mode extension : CM (complete main)
Duration : 20mn 14s
Bit rate mode : Constant
Bit rate : 192 Kbps
Channel(s) : 2 channels
Channel positions : Front: L R
Sampling rate : 48.0 KHz
Bit depth : 16 bits
Compression mode : Lossy
Stream size : 27.8 MiB (3%)
Audio #3
ID : 130 (0x82)
Format : AC-3
Format/Info : Audio Coding 3
Mode extension : CM (complete main)
Duration : 20mn 14s
Bit rate mode : Constant
Bit rate : 448 Kbps
Channel(s) : 6 channels
Channel positions : Front: L C R, Side: L R, LFE
Sampling rate : 48.0 KHz
Bit depth : 16 bits
Compression mode : Lossy
Stream size : 64.8 MiB (6%)
Menu
General
Complete name : D:\Мои релизы\Chce sie zyc [DVD9]\VIDEO_TS\VTS_02_2.VOB
Format : MPEG-PS
File size : 1 024 MiB
Duration : 19mn 21s
Overall bit rate : 7 393 Kbps
Video
ID : 224 (0xE0)
Format : MPEG Video
Format version : Version 2
Format profile : Main@Main
Format settings, BVOP : Yes
Format settings, Matrix : Default
Format settings, GOP : M=3, N=12
Duration : 19mn 21s
Bit rate mode : Variable
Bit rate : 6 158 Kbps
Nominal bit rate : 8 200 Kbps
Width : 720 pixels
Height : 576 pixels
Display aspect ratio : 16:9
Frame rate : 25.000 fps
Standard : PAL
Color space : YUV
Chroma subsampling : 4:2:0
Bit depth : 8 bits
Scan type : Progressive
Scan order : Top Field First
Compression mode : Lossy
Bits/(Pixel*Frame) : 0.594
Stream size : 853 MiB (83%)
Audio #1
ID : 128 (0x80)
Format : AC-3
Format/Info : Audio Coding 3
Mode extension : CM (complete main)
Duration : 19mn 21s
Bit rate mode : Constant
Bit rate : 448 Kbps
Channel(s) : 6 channels
Channel positions : Front: L C R, Side: L R, LFE
Sampling rate : 48.0 KHz
Bit depth : 16 bits
Compression mode : Lossy
Video delay : -352ms
Stream size : 62.1 MiB (6%)
Audio #2
ID : 129 (0x81)
Format : AC-3
Format/Info : Audio Coding 3
Mode extension : CM (complete main)
Duration : 19mn 21s
Bit rate mode : Constant
Bit rate : 192 Kbps
Channel(s) : 2 channels
Channel positions : Front: L R
Sampling rate : 48.0 KHz
Bit depth : 16 bits
Compression mode : Lossy
Video delay : -256ms
Stream size : 26.6 MiB (3%)
Audio #3
ID : 130 (0x82)
Format : AC-3
Format/Info : Audio Coding 3
Mode extension : CM (complete main)
Duration : 19mn 21s
Bit rate mode : Constant
Bit rate : 448 Kbps
Channel(s) : 6 channels
Channel positions : Front: L C R, Side: L R, LFE
Sampling rate : 48.0 KHz
Bit depth : 16 bits
Compression mode : Lossy
Video delay : -352ms
Stream size : 62.1 MiB (6%)
Text #1
ID : 32 (0x20)
Format : RLE
Format/Info : Run-length encoding
Video delay : 440ms
Text #2
ID : 33 (0x21)
Format : RLE
Format/Info : Run-length encoding
Video delay : 760ms
Text #3
ID : 34 (0x22)
Format : RLE
Format/Info : Run-length encoding
Video delay : 920ms
Menu
General
Complete name : D:\Мои релизы\Chce sie zyc [DVD9]\VIDEO_TS\VTS_02_3.VOB
Format : MPEG-PS
File size : 1 024 MiB
Duration : 19mn 15s
Overall bit rate : 7 432 Kbps
Video
ID : 224 (0xE0)
Format : MPEG Video
Format version : Version 2
Format profile : Main@Main
Format settings, BVOP : Yes
Format settings, Matrix : Default
Duration : 19mn 15s
Bit rate mode : Variable
Bit rate : 6 196 Kbps
Nominal bit rate : 8 200 Kbps
Width : 720 pixels
Height : 576 pixels
Display aspect ratio : 16:9
Frame rate : 25.000 fps
Standard : PAL
Color space : YUV
Chroma subsampling : 4:2:0
Bit depth : 8 bits
Scan type : Progressive
Scan order : Top Field First
Compression mode : Lossy
Bits/(Pixel*Frame) : 0.598
Stream size : 854 MiB (83%)
Audio #1
ID : 128 (0x80)
Format : AC-3
Format/Info : Audio Coding 3
Mode extension : CM (complete main)
Duration : 19mn 15s
Bit rate mode : Constant
Bit rate : 448 Kbps
Channel(s) : 6 channels
Channel positions : Front: L C R, Side: L R, LFE
Sampling rate : 48.0 KHz
Bit depth : 16 bits
Compression mode : Lossy
Video delay : -544ms
Stream size : 61.7 MiB (6%)
Audio #2
ID : 129 (0x81)
Format : AC-3
Format/Info : Audio Coding 3
Mode extension : CM (complete main)
Duration : 19mn 15s
Bit rate mode : Constant
Bit rate : 192 Kbps
Channel(s) : 2 channels
Channel positions : Front: L R
Sampling rate : 48.0 KHz
Bit depth : 16 bits
Compression mode : Lossy
Video delay : -448ms
Stream size : 26.5 MiB (3%)
Audio #3
ID : 130 (0x82)
Format : AC-3
Format/Info : Audio Coding 3
Mode extension : CM (complete main)
Duration : 19mn 15s
Bit rate mode : Constant
Bit rate : 448 Kbps
Channel(s) : 6 channels
Channel positions : Front: L C R, Side: L R, LFE
Sampling rate : 48.0 KHz
Bit depth : 16 bits
Compression mode : Lossy
Video delay : -544ms
Stream size : 61.7 MiB (6%)
Menu
General
Complete name : D:\Мои релизы\Chce sie zyc [DVD9]\VIDEO_TS\VTS_02_4.VOB
Format : MPEG-PS
File size : 1 024 MiB
Duration : 19mn 13s
Overall bit rate : 7 449 Kbps
Video
ID : 224 (0xE0)
Format : MPEG Video
Format version : Version 2
Format profile : Main@Main
Format settings, BVOP : Yes
Format settings, Matrix : Default
Format settings, GOP : M=3, N=12
Duration : 19mn 12s
Bit rate mode : Variable
Bit rate : 6 213 Kbps
Nominal bit rate : 8 200 Kbps
Width : 720 pixels
Height : 576 pixels
Display aspect ratio : 16:9
Frame rate : 25.000 fps
Standard : PAL
Color space : YUV
Chroma subsampling : 4:2:0
Bit depth : 8 bits
Scan type : Progressive
Scan order : Top Field First
Compression mode : Lossy
Bits/(Pixel*Frame) : 0.599
Stream size : 854 MiB (83%)
Audio #1
ID : 128 (0x80)
Format : AC-3
Format/Info : Audio Coding 3
Mode extension : CM (complete main)
Duration : 19mn 13s
Bit rate mode : Constant
Bit rate : 448 Kbps
Channel(s) : 6 channels
Channel positions : Front: L C R, Side: L R, LFE
Sampling rate : 48.0 KHz
Bit depth : 16 bits
Compression mode : Lossy
Video delay : -760ms
Stream size : 61.6 MiB (6%)
Audio #2
ID : 129 (0x81)
Format : AC-3
Format/Info : Audio Coding 3
Mode extension : CM (complete main)
Duration : 19mn 13s
Bit rate mode : Constant
Bit rate : 192 Kbps
Channel(s) : 2 channels
Channel positions : Front: L R
Sampling rate : 48.0 KHz
Bit depth : 16 bits
Compression mode : Lossy
Video delay : -728ms
Stream size : 26.4 MiB (3%)
Audio #3
ID : 130 (0x82)
Format : AC-3
Format/Info : Audio Coding 3
Mode extension : CM (complete main)
Duration : 19mn 13s
Bit rate mode : Constant
Bit rate : 448 Kbps
Channel(s) : 6 channels
Channel positions : Front: L C R, Side: L R, LFE
Sampling rate : 48.0 KHz
Bit depth : 16 bits
Compression mode : Lossy
Video delay : -760ms
Stream size : 61.6 MiB (6%)
Text #1
ID : 32 (0x20)
Format : RLE
Format/Info : Run-length encoding
Text #2
ID : 33 (0x21)
Format : RLE
Format/Info : Run-length encoding
Text #3
ID : 34 (0x22)
Format : RLE
Format/Info : Run-length encoding
Menu
General
Complete name : D:\Мои релизы\Chce sie zyc [DVD9]\VIDEO_TS\VTS_02_5.VOB
Format : MPEG-PS
File size : 1 024 MiB
Duration : 19mn 12s
Overall bit rate : 7 452 Kbps
Video
ID : 224 (0xE0)
Format : MPEG Video
Format version : Version 2
Format profile : Main@Main
Format settings, BVOP : Yes
Format settings, Matrix : Default
Format settings, GOP : M=3, N=12
Duration : 19mn 12s
Bit rate mode : Variable
Bit rate : 6 215 Kbps
Nominal bit rate : 8 200 Kbps
Width : 720 pixels
Height : 576 pixels
Display aspect ratio : 16:9
Frame rate : 25.000 fps
Standard : PAL
Color space : YUV
Chroma subsampling : 4:2:0
Bit depth : 8 bits
Scan type : Progressive
Scan order : Top Field First
Compression mode : Lossy
Bits/(Pixel*Frame) : 0.599
Stream size : 854 MiB (83%)
Audio #1
ID : 128 (0x80)
Format : AC-3
Format/Info : Audio Coding 3
Mode extension : CM (complete main)
Duration : 19mn 12s
Bit rate mode : Constant
Bit rate : 448 Kbps
Channel(s) : 6 channels
Channel positions : Front: L C R, Side: L R, LFE
Sampling rate : 48.0 KHz
Bit depth : 16 bits
Compression mode : Lossy
Video delay : -552ms
Stream size : 61.6 MiB (6%)
Audio #2
ID : 129 (0x81)
Format : AC-3
Format/Info : Audio Coding 3
Mode extension : CM (complete main)
Duration : 19mn 12s
Bit rate mode : Constant
Bit rate : 192 Kbps
Channel(s) : 2 channels
Channel positions : Front: L R
Sampling rate : 48.0 KHz
Bit depth : 16 bits
Compression mode : Lossy
Video delay : -520ms
Stream size : 26.4 MiB (3%)
Audio #3
ID : 130 (0x82)
Format : AC-3
Format/Info : Audio Coding 3
Mode extension : CM (complete main)
Duration : 19mn 12s
Bit rate mode : Constant
Bit rate : 448 Kbps
Channel(s) : 6 channels
Channel positions : Front: L C R, Side: L R, LFE
Sampling rate : 48.0 KHz
Bit depth : 16 bits
Compression mode : Lossy
Video delay : -552ms
Stream size : 61.6 MiB (6%)
Text #1
ID : 33 (0x21)
Format : RLE
Format/Info : Run-length encoding
Duration : 19mn 10s
Video delay : -240ms
Text #2
ID : 34 (0x22)
Format : RLE
Format/Info : Run-length encoding
Duration : 19mn 9s
Video delay : -200ms
Text #3
ID : 32 (0x20)
Format : RLE
Format/Info : Run-length encoding
Menu
General
Complete name : D:\Мои релизы\Chce sie zyc [DVD9]\VIDEO_TS\VTS_02_6.VOB
Format : MPEG-PS
File size : 511 MiB
Duration : 9mn 46s
Overall bit rate : 7 310 Kbps
Video
ID : 224 (0xE0)
Format : MPEG Video
Format version : Version 2
Format profile : Main@Main
Format settings, BVOP : Yes
Format settings, Matrix : Default
Duration : 9mn 46s
Bit rate mode : Variable
Bit rate : 6 076 Kbps
Nominal bit rate : 8 200 Kbps
Width : 720 pixels
Height : 576 pixels
Display aspect ratio : 16:9
Frame rate : 25.000 fps
Standard : PAL
Color space : YUV
Chroma subsampling : 4:2:0
Bit depth : 8 bits
Scan type : Progressive
Scan order : Top Field First
Compression mode : Lossy
Bits/(Pixel*Frame) : 0.586
Stream size : 425 MiB (83%)
Audio #1
ID : 128 (0x80)
Format : AC-3
Format/Info : Audio Coding 3
Mode extension : CM (complete main)
Duration : 9mn 46s
Bit rate mode : Constant
Bit rate : 448 Kbps
Channel(s) : 6 channels
Channel positions : Front: L C R, Side: L R, LFE
Sampling rate : 48.0 KHz
Bit depth : 16 bits
Compression mode : Lossy
Video delay : -680ms
Stream size : 31.3 MiB (6%)
Audio #2
ID : 129 (0x81)
Format : AC-3
Format/Info : Audio Coding 3
Mode extension : CM (complete main)
Duration : 9mn 46s
Bit rate mode : Constant
Bit rate : 192 Kbps
Channel(s) : 2 channels
Channel positions : Front: L R
Sampling rate : 48.0 KHz
Bit depth : 16 bits
Compression mode : Lossy
Video delay : -584ms
Stream size : 13.4 MiB (3%)
Audio #3
ID : 130 (0x82)
Format : AC-3
Format/Info : Audio Coding 3
Mode extension : CM (complete main)
Duration : 9mn 46s
Bit rate mode : Constant
Bit rate : 448 Kbps
Channel(s) : 6 channels
Channel positions : Front: L C R, Side: L R, LFE
Sampling rate : 48.0 KHz
Bit depth : 16 bits
Compression mode : Lossy
Video delay : -680ms
Stream size : 31.3 MiB (6%)
Text #1
ID : 32 (0x20)
Format : RLE
Format/Info : Run-length encoding
Video delay : 480ms
Text #2
ID : 33 (0x21)
Format : RLE
Format/Info : Run-length encoding
Video delay : 560ms
Text #3
ID : 34 (0x22)
Format : RLE
Format/Info : Run-length encoding
Video delay : 640ms
Menu
General
Complete name : D:\Мои релизы\Chce sie zyc [DVD9]\VIDEO_TS\VTS_03_0.BUP
Format : DVD Video
Format profile : Program
File size : 20.0 KiB
Duration : 2mn 20s
Overall bit rate : 1 168 bps
Video
ID : 224 (0xE0)
Format : MPEG Video
Format version : Version 2
Duration : 2mn 20s
Bit rate mode : Variable
Width : 720 pixels
Height : 576 pixels
Display aspect ratio : 16:9
Frame rate : 25.000 fps
Standard : PAL
Compression mode : Lossy
Audio
ID : 128 (0x80)
Format : AC-3
Format/Info : Audio Coding 3
Duration : 2mn 20s
Channel(s) : 2 channels
Sampling rate : 48.0 KHz
Compression mode : Lossy
Language : Polish
Menu #1
Duration : 2mn 20s
00:00:00.000 : Chapter 1
List (Audio) : 0
Menu #2
Duration : 2mn 20s
00:00:00.000 : Chapter 1
List (Audio) : 0
Menu #3
General
Complete name : D:\Мои релизы\Chce sie zyc [DVD9]\VIDEO_TS\VTS_03_0.IFO
Format : DVD Video
Format profile : Program
File size : 20.0 KiB
Duration : 2mn 20s
Overall bit rate : 1 168 bps
Video
ID : 224 (0xE0)
Format : MPEG Video
Format version : Version 2
Duration : 2mn 20s
Bit rate mode : Variable
Width : 720 pixels
Height : 576 pixels
Display aspect ratio : 16:9
Frame rate : 25.000 fps
Standard : PAL
Compression mode : Lossy
Audio
ID : 128 (0x80)
Format : AC-3
Format/Info : Audio Coding 3
Duration : 2mn 20s
Channel(s) : 2 channels
Sampling rate : 48.0 KHz
Compression mode : Lossy
Language : Polish
Menu #1
Duration : 2mn 20s
00:00:00.000 : Chapter 1
List (Audio) : 0
Menu #2
Duration : 2mn 20s
00:00:00.000 : Chapter 1
List (Audio) : 0
Menu #3
General
Complete name : D:\Мои релизы\Chce sie zyc [DVD9]\VIDEO_TS\VTS_03_0.VOB
Format : MPEG-PS
File size : 964 KiB
Duration : 30s 80ms
Overall bit rate : 263 Kbps
Video
ID : 224 (0xE0)
Format : MPEG Video
Format version : Version 2
Format profile : Main@Main
Format settings, BVOP : No
Format settings, Matrix : Default
Duration : 40ms
Bit rate mode : Variable
Bit rate : 65.3 Kbps
Nominal bit rate : 7 000 Kbps
Width : 720 pixels
Height : 576 pixels
Display aspect ratio : 16:9
Frame rate : 25.000 fps
Standard : PAL
Color space : YUV
Chroma subsampling : 4:2:0
Bit depth : 8 bits
Scan type : Progressive
Compression mode : Lossy
Bits/(Pixel*Frame) : 0.006
Stream size : 327 Bytes (0%)
Audio
ID : 128 (0x80)
Format : AC-3
Format/Info : Audio Coding 3
Mode extension : CM (complete main)
Duration : 30s 80ms
Bit rate mode : Constant
Bit rate : 192 Kbps
Channel(s) : 2 channels
Channel positions : Front: L R
Sampling rate : 48.0 KHz
Bit depth : 16 bits
Compression mode : Lossy
Stream size : 705 KiB (73%)
Text #1
ID : 32 (0x20)
Format : RLE
Format/Info : Run-length encoding
Text #2
ID : 33 (0x21)
Format : RLE
Format/Info : Run-length encoding
Menu
General
Complete name : D:\Мои релизы\Chce sie zyc [DVD9]\VIDEO_TS\VTS_03_1.VOB
Format : MPEG-PS
File size : 71.7 MiB
Duration : 2mn 20s
Overall bit rate : 4 288 Kbps
Video
ID : 224 (0xE0)
Format : MPEG Video
Format version : Version 2
Format profile : Main@Main
Format settings, BVOP : Yes
Format settings, Matrix : Default
Format settings, GOP : M=3, N=12
Duration : 2mn 20s
Bit rate mode : Constant
Bit rate : 4 000 Kbps
Width : 720 pixels
Height : 576 pixels
Display aspect ratio : 16:9
Frame rate : 25.000 fps
Standard : PAL
Color space : YUV
Chroma subsampling : 4:2:0
Bit depth : 8 bits
Scan type : Progressive
Compression mode : Lossy
Bits/(Pixel*Frame) : 0.386
Stream size : 67.0 MiB (93%)
Audio
ID : 128 (0x80)
Format : AC-3
Format/Info : Audio Coding 3
Mode extension : CM (complete main)
Duration : 2mn 20s
Bit rate mode : Constant
Bit rate : 192 Kbps
Channel(s) : 2 channels
Channel positions : Front: L R
Sampling rate : 48.0 KHz
Bit depth : 16 bits
Compression mode : Lossy
Video delay : -80ms
Stream size : 3.21 MiB (4%)
Menu
General
Complete name : D:\Мои релизы\Chce sie zyc [DVD9]\VIDEO_TS\VTS_04_0.BUP
Format : DVD Video
Format profile : Program
File size : 18.0 KiB
Duration : 3mn 11s
Overall bit rate : 769 bps
Video
ID : 224 (0xE0)
Format : MPEG Video
Format version : Version 2
Duration : 3mn 11s
Bit rate mode : Variable
Width : 720 pixels
Height : 576 pixels
Display aspect ratio : 16:9
Frame rate : 25.000 fps
Standard : PAL
Compression mode : Lossy
Audio
ID : 128 (0x80)
Format : AC-3
Format/Info : Audio Coding 3
Duration : 3mn 11s
Channel(s) : 2 channels
Sampling rate : 48.0 KHz
Compression mode : Lossy
Language : Polish
Menu #1
Duration : 3mn 11s
00:00:00.000 : Chapter 1
List (Audio) : 0
Menu #2
Duration : 3mn 11s
00:00:00.000 : Chapter 1
List (Audio) : 0
Menu #3
General
Complete name : D:\Мои релизы\Chce sie zyc [DVD9]\VIDEO_TS\VTS_04_0.IFO
Format : DVD Video
Format profile : Program
File size : 18.0 KiB
Duration : 3mn 11s
Overall bit rate : 769 bps
Video
ID : 224 (0xE0)
Format : MPEG Video
Format version : Version 2
Duration : 3mn 11s
Bit rate mode : Variable
Width : 720 pixels
Height : 576 pixels
Display aspect ratio : 16:9
Frame rate : 25.000 fps
Standard : PAL
Compression mode : Lossy
Audio
ID : 128 (0x80)
Format : AC-3
Format/Info : Audio Coding 3
Duration : 3mn 11s
Channel(s) : 2 channels
Sampling rate : 48.0 KHz
Compression mode : Lossy
Language : Polish
Menu #1
Duration : 3mn 11s
00:00:00.000 : Chapter 1
List (Audio) : 0
Menu #2
Duration : 3mn 11s
00:00:00.000 : Chapter 1
List (Audio) : 0
Menu #3
General
Complete name : D:\Мои релизы\Chce sie zyc [DVD9]\VIDEO_TS\VTS_04_0.VOB
Format : MPEG-PS
File size : 152 KiB
Duration : 520ms
Overall bit rate : 2 395 Kbps
Video
ID : 224 (0xE0)
Format : MPEG Video
Format version : Version 2
Format profile : Main@Main
Format settings, BVOP : Yes
Format settings, Matrix : Default
Duration : 520ms
Bit rate mode : Constant
Bit rate : 2 000 Kbps
Width : 720 pixels
Height : 576 pixels
Display aspect ratio : 4:3
Frame rate : 25.000 fps
Standard : PAL
Color space : YUV
Chroma subsampling : 4:2:0
Bit depth : 8 bits
Scan type : Interlaced
Scan order : Top Field First
Compression mode : Lossy
Bits/(Pixel*Frame) : 0.193
Stream size : 127 KiB (84%)
Menu
General
Complete name : D:\Мои релизы\Chce sie zyc [DVD9]\VIDEO_TS\VTS_04_1.VOB
Format : MPEG-PS
File size : 97.7 MiB
Duration : 3mn 11s
Overall bit rate : 4 278 Kbps
Video
ID : 224 (0xE0)
Format : MPEG Video
Format version : Version 2
Format profile : Main@Main
Format settings, BVOP : Yes
Format settings, Matrix : Default
Format settings, GOP : M=3, N=12
Duration : 3mn 11s
Bit rate mode : Variable
Bit rate : 4 001 Kbps
Nominal bit rate : 8 500 Kbps
Width : 720 pixels
Height : 576 pixels
Display aspect ratio : 16:9
Frame rate : 25.000 fps
Standard : PAL
Color space : YUV
Chroma subsampling : 4:2:0
Bit depth : 8 bits
Scan type : Progressive
Compression mode : Lossy
Bits/(Pixel*Frame) : 0.386
Stream size : 91.3 MiB (93%)
Audio
ID : 128 (0x80)
Format : AC-3
Format/Info : Audio Coding 3
Mode extension : CM (complete main)
Duration : 3mn 11s
Bit rate mode : Constant
Bit rate : 192 Kbps
Channel(s) : 2 channels
Channel positions : Front: L R
Sampling rate : 48.0 KHz
Bit depth : 16 bits
Compression mode : Lossy
Video delay : -80ms
Stream size : 4.39 MiB (4%)
Menu
General
Complete name : D:\Мои релизы\Chce sie zyc [DVD9]\VIDEO_TS\VTS_05_0.BUP
Format : DVD Video
Format profile : Program
File size : 18.0 KiB
Duration : 3mn 9s
Overall bit rate : 776 bps
Video
ID : 224 (0xE0)
Format : MPEG Video
Format version : Version 2
Duration : 3mn 9s
Bit rate mode : Variable
Width : 720 pixels
Height : 576 pixels
Display aspect ratio : 16:9
Frame rate : 25.000 fps
Standard : PAL
Compression mode : Lossy
Audio
ID : 128 (0x80)
Format : AC-3
Format/Info : Audio Coding 3
Duration : 3mn 9s
Channel(s) : 2 channels
Sampling rate : 48.0 KHz
Compression mode : Lossy
Language : Polish
Menu #1
Duration : 3mn 9s
00:00:00.000 : Chapter 1
List (Audio) : 0
Menu #2
Duration : 3mn 9s
00:00:00.000 : Chapter 1
List (Audio) : 0
Menu #3
General
Complete name : D:\Мои релизы\Chce sie zyc [DVD9]\VIDEO_TS\VTS_05_0.IFO
Format : DVD Video
Format profile : Program
File size : 18.0 KiB
Duration : 3mn 9s
Overall bit rate : 776 bps
Video
ID : 224 (0xE0)
Format : MPEG Video
Format version : Version 2
Duration : 3mn 9s
Bit rate mode : Variable
Width : 720 pixels
Height : 576 pixels
Display aspect ratio : 16:9
Frame rate : 25.000 fps
Standard : PAL
Compression mode : Lossy
Audio
ID : 128 (0x80)
Format : AC-3
Format/Info : Audio Coding 3
Duration : 3mn 9s
Channel(s) : 2 channels
Sampling rate : 48.0 KHz
Compression mode : Lossy
Language : Polish
Menu #1
Duration : 3mn 9s
00:00:00.000 : Chapter 1
List (Audio) : 0
Menu #2
Duration : 3mn 9s
00:00:00.000 : Chapter 1
List (Audio) : 0
Menu #3
General
Complete name : D:\Мои релизы\Chce sie zyc [DVD9]\VIDEO_TS\VTS_05_0.VOB
Format : MPEG-PS
File size : 152 KiB
Duration : 520ms
Overall bit rate : 2 395 Kbps
Video
ID : 224 (0xE0)
Format : MPEG Video
Format version : Version 2
Format profile : Main@Main
Format settings, BVOP : Yes
Format settings, Matrix : Default
Duration : 520ms
Bit rate mode : Constant
Bit rate : 2 000 Kbps
Width : 720 pixels
Height : 576 pixels
Display aspect ratio : 4:3
Frame rate : 25.000 fps
Standard : PAL
Color space : YUV
Chroma subsampling : 4:2:0
Bit depth : 8 bits
Scan type : Interlaced
Scan order : Top Field First
Compression mode : Lossy
Bits/(Pixel*Frame) : 0.193
Stream size : 127 KiB (84%)
Menu
General
Complete name : D:\Мои релизы\Chce sie zyc [DVD9]\VIDEO_TS\VTS_05_1.VOB
Format : MPEG-PS
File size : 96.8 MiB
Duration : 3mn 9s
Overall bit rate : 4 276 Kbps
Video
ID : 224 (0xE0)
Format : MPEG Video
Format version : Version 2
Format profile : Main@Main
Format settings, BVOP : Yes
Format settings, Matrix : Default
Format settings, GOP : M=3, N=12
Duration : 3mn 9s
Bit rate mode : Variable
Bit rate : 3 999 Kbps
Nominal bit rate : 8 500 Kbps
Width : 720 pixels
Height : 576 pixels
Display aspect ratio : 16:9
Frame rate : 25.000 fps
Standard : PAL
Color space : YUV
Chroma subsampling : 4:2:0
Bit depth : 8 bits
Scan type : Progressive
Compression mode : Lossy
Bits/(Pixel*Frame) : 0.386
Stream size : 90.5 MiB (93%)
Audio
ID : 128 (0x80)
Format : AC-3
Format/Info : Audio Coding 3
Mode extension : CM (complete main)
Duration : 3mn 9s
Bit rate mode : Constant
Bit rate : 192 Kbps
Channel(s) : 2 channels
Channel positions : Front: L R
Sampling rate : 48.0 KHz
Bit depth : 16 bits
Compression mode : Lossy
Video delay : -80ms
Stream size : 4.35 MiB (4%)
Menu
General
Complete name : D:\Мои релизы\Chce sie zyc [DVD9]\VIDEO_TS\VTS_06_0.BUP
Format : DVD Video
Format profile : Program
File size : 18.0 KiB
Duration : 2mn 27s
Overall bit rate : 1 000 bps
Video
ID : 224 (0xE0)
Format : MPEG Video
Format version : Version 2
Duration : 2mn 27s
Bit rate mode : Variable
Width : 720 pixels
Height : 576 pixels
Display aspect ratio : 16:9
Frame rate : 25.000 fps
Standard : PAL
Compression mode : Lossy
Audio
ID : 128 (0x80)
Format : AC-3
Format/Info : Audio Coding 3
Duration : 2mn 27s
Channel(s) : 2 channels
Sampling rate : 48.0 KHz
Compression mode : Lossy
Language : Polish
Menu #1
Duration : 2mn 27s
00:00:00.000 : Chapter 1
List (Audio) : 0
Menu #2
Duration : 2mn 27s
00:00:00.000 : Chapter 1
List (Audio) : 0
Menu #3
General
Complete name : D:\Мои релизы\Chce sie zyc [DVD9]\VIDEO_TS\VTS_06_0.IFO
Format : DVD Video
Format profile : Program
File size : 18.0 KiB
Duration : 2mn 27s
Overall bit rate : 1 000 bps
Video
ID : 224 (0xE0)
Format : MPEG Video
Format version : Version 2
Duration : 2mn 27s
Bit rate mode : Variable
Width : 720 pixels
Height : 576 pixels
Display aspect ratio : 16:9
Frame rate : 25.000 fps
Standard : PAL
Compression mode : Lossy
Audio
ID : 128 (0x80)
Format : AC-3
Format/Info : Audio Coding 3
Duration : 2mn 27s
Channel(s) : 2 channels
Sampling rate : 48.0 KHz
Compression mode : Lossy
Language : Polish
Menu #1
Duration : 2mn 27s
00:00:00.000 : Chapter 1
List (Audio) : 0
Menu #2
Duration : 2mn 27s
00:00:00.000 : Chapter 1
List (Audio) : 0
Menu #3
General
Complete name : D:\Мои релизы\Chce sie zyc [DVD9]\VIDEO_TS\VTS_06_0.VOB
Format : MPEG-PS
File size : 152 KiB
Duration : 520ms
Overall bit rate : 2 395 Kbps
Video
ID : 224 (0xE0)
Format : MPEG Video
Format version : Version 2
Format profile : Main@Main
Format settings, BVOP : Yes
Format settings, Matrix : Default
Duration : 520ms
Bit rate mode : Constant
Bit rate : 2 000 Kbps
Width : 720 pixels
Height : 576 pixels
Display aspect ratio : 4:3
Frame rate : 25.000 fps
Standard : PAL
Color space : YUV
Chroma subsampling : 4:2:0
Bit depth : 8 bits
Scan type : Interlaced
Scan order : Top Field First
Compression mode : Lossy
Bits/(Pixel*Frame) : 0.193
Stream size : 127 KiB (84%)
Menu
General
Complete name : D:\Мои релизы\Chce sie zyc [DVD9]\VIDEO_TS\VTS_06_1.VOB
Format : MPEG-PS
File size : 75.4 MiB
Duration : 2mn 27s
Overall bit rate : 4 291 Kbps
Video
ID : 224 (0xE0)
Format : MPEG Video
Format version : Version 2
Format profile : Main@Main
Format settings, BVOP : Yes
Format settings, Matrix : Default
Format settings, GOP : M=3, N=12
Duration : 2mn 27s
Bit rate mode : Constant
Bit rate : 4 000 Kbps
Width : 720 pixels
Height : 576 pixels
Display aspect ratio : 16:9
Frame rate : 25.000 fps
Standard : PAL
Color space : YUV
Chroma subsampling : 4:2:0
Bit depth : 8 bits
Scan type : Progressive
Compression mode : Lossy
Bits/(Pixel*Frame) : 0.386
Stream size : 70.5 MiB (93%)
Audio
ID : 128 (0x80)
Format : AC-3
Format/Info : Audio Coding 3
Mode extension : CM (complete main)
Duration : 2mn 27s
Bit rate mode : Constant
Bit rate : 192 Kbps
Channel(s) : 2 channels
Channel positions : Front: L R
Sampling rate : 48.0 KHz
Bit depth : 16 bits
Compression mode : Lossy
Video delay : -80ms
Stream size : 3.37 MiB (4%)
Menu
General
Complete name : D:\Мои релизы\Chce sie zyc [DVD9]\VIDEO_TS\VTS_07_0.BUP
Format : DVD Video
Format profile : Program
File size : 18.0 KiB
Duration : 2mn 28s
Overall bit rate : 992 bps
Video
ID : 224 (0xE0)
Format : MPEG Video
Format version : Version 2
Duration : 2mn 28s
Bit rate mode : Variable
Width : 720 pixels
Height : 576 pixels
Display aspect ratio : 16:9
Frame rate : 25.000 fps
Standard : PAL
Compression mode : Lossy
Audio
ID : 128 (0x80)
Format : AC-3
Format/Info : Audio Coding 3
Duration : 2mn 28s
Channel(s) : 2 channels
Sampling rate : 48.0 KHz
Compression mode : Lossy
Language : Polish
Menu #1
Duration : 2mn 28s
00:00:00.000 : Chapter 1
List (Audio) : 0
Menu #2
Duration : 2mn 28s
00:00:00.000 : Chapter 1
List (Audio) : 0
Menu #3
General
Complete name : D:\Мои релизы\Chce sie zyc [DVD9]\VIDEO_TS\VTS_07_0.IFO
Format : DVD Video
Format profile : Program
File size : 18.0 KiB
Duration : 2mn 28s
Overall bit rate : 992 bps
Video
ID : 224 (0xE0)
Format : MPEG Video
Format version : Version 2
Duration : 2mn 28s
Bit rate mode : Variable
Width : 720 pixels
Height : 576 pixels
Display aspect ratio : 16:9
Frame rate : 25.000 fps
Standard : PAL
Compression mode : Lossy
Audio
ID : 128 (0x80)
Format : AC-3
Format/Info : Audio Coding 3
Duration : 2mn 28s
Channel(s) : 2 channels
Sampling rate : 48.0 KHz
Compression mode : Lossy
Language : Polish
Menu #1
Duration : 2mn 28s
00:00:00.000 : Chapter 1
List (Audio) : 0
Menu #2
Duration : 2mn 28s
00:00:00.000 : Chapter 1
List (Audio) : 0
Menu #3
General
Complete name : D:\Мои релизы\Chce sie zyc [DVD9]\VIDEO_TS\VTS_07_0.VOB
Format : MPEG-PS
File size : 152 KiB
Duration : 520ms
Overall bit rate : 2 395 Kbps
Video
ID : 224 (0xE0)
Format : MPEG Video
Format version : Version 2
Format profile : Main@Main
Format settings, BVOP : Yes
Format settings, Matrix : Default
Duration : 520ms
Bit rate mode : Constant
Bit rate : 2 000 Kbps
Width : 720 pixels
Height : 576 pixels
Display aspect ratio : 4:3
Frame rate : 25.000 fps
Standard : PAL
Color space : YUV
Chroma subsampling : 4:2:0
Bit depth : 8 bits
Scan type : Interlaced
Scan order : Top Field First
Compression mode : Lossy
Bits/(Pixel*Frame) : 0.193
Stream size : 127 KiB (84%)
Menu
General
Complete name : D:\Мои релизы\Chce sie zyc [DVD9]\VIDEO_TS\VTS_07_1.VOB
Format : MPEG-PS
File size : 94.0 MiB
Duration : 2mn 28s
Overall bit rate : 5 303 Kbps
Video
ID : 224 (0xE0)
Format : MPEG Video
Format version : Version 2
Format profile : Main@Main
Format settings, BVOP : Yes
Format settings, Matrix : Default
Format settings, GOP : M=3, N=12
Duration : 2mn 28s
Bit rate mode : Constant
Bit rate : 5 000 Kbps
Width : 720 pixels
Height : 576 pixels
Display aspect ratio : 16:9
Frame rate : 25.000 fps
Standard : PAL
Color space : YUV
Chroma subsampling : 4:2:0
Bit depth : 8 bits
Scan type : Progressive
Compression mode : Lossy
Bits/(Pixel*Frame) : 0.482
Stream size : 88.6 MiB (94%)
Audio
ID : 128 (0x80)
Format : AC-3
Format/Info : Audio Coding 3
Mode extension : CM (complete main)
Duration : 2mn 28s
Bit rate mode : Constant
Bit rate : 192 Kbps
Channel(s) : 2 channels
Channel positions : Front: L R
Sampling rate : 48.0 KHz
Bit depth : 16 bits
Compression mode : Lossy
Video delay : -80ms
Stream size : 3.40 MiB (4%)
Menu
General
Complete name : D:\Мои релизы\Chce sie zyc [DVD9]\VIDEO_TS\VTS_08_0.BUP
Format : DVD Video
Format profile : Program
File size : 18.0 KiB
Duration : 2mn 24s
Overall bit rate : 1 022 bps
Video
ID : 224 (0xE0)
Format : MPEG Video
Format version : Version 2
Duration : 2mn 24s
Bit rate mode : Variable
Width : 720 pixels
Height : 576 pixels
Display aspect ratio : 16:9
Frame rate : 25.000 fps
Standard : PAL
Compression mode : Lossy
Audio
ID : 128 (0x80)
Format : AC-3
Format/Info : Audio Coding 3
Duration : 2mn 24s
Channel(s) : 2 channels
Sampling rate : 48.0 KHz
Compression mode : Lossy
Language : English
Menu #1
Duration : 2mn 24s
00:00:00.000 : Chapter 1
List (Audio) : 0
Menu #2
Duration : 2mn 24s
00:00:00.000 : Chapter 1
List (Audio) : 0
Menu #3
General
Complete name : D:\Мои релизы\Chce sie zyc [DVD9]\VIDEO_TS\VTS_08_0.IFO
Format : DVD Video
Format profile : Program
File size : 18.0 KiB
Duration : 2mn 24s
Overall bit rate : 1 022 bps
Video
ID : 224 (0xE0)
Format : MPEG Video
Format version : Version 2
Duration : 2mn 24s
Bit rate mode : Variable
Width : 720 pixels
Height : 576 pixels
Display aspect ratio : 16:9
Frame rate : 25.000 fps
Standard : PAL
Compression mode : Lossy
Audio
ID : 128 (0x80)
Format : AC-3
Format/Info : Audio Coding 3
Duration : 2mn 24s
Channel(s) : 2 channels
Sampling rate : 48.0 KHz
Compression mode : Lossy
Language : English
Menu #1
Duration : 2mn 24s
00:00:00.000 : Chapter 1
List (Audio) : 0
Menu #2
Duration : 2mn 24s
00:00:00.000 : Chapter 1
List (Audio) : 0
Menu #3
General
Complete name : D:\Мои релизы\Chce sie zyc [DVD9]\VIDEO_TS\VTS_08_0.VOB
Format : MPEG-PS
File size : 152 KiB
Duration : 520ms
Overall bit rate : 2 395 Kbps
Video
ID : 224 (0xE0)
Format : MPEG Video
Format version : Version 2
Format profile : Main@Main
Format settings, BVOP : Yes
Format settings, Matrix : Default
Duration : 520ms
Bit rate mode : Constant
Bit rate : 2 000 Kbps
Width : 720 pixels
Height : 576 pixels
Display aspect ratio : 4:3
Frame rate : 25.000 fps
Standard : PAL
Color space : YUV
Chroma subsampling : 4:2:0
Bit depth : 8 bits
Scan type : Interlaced
Scan order : Top Field First
Compression mode : Lossy
Bits/(Pixel*Frame) : 0.193
Stream size : 127 KiB (84%)
Menu
General
Complete name : D:\Мои релизы\Chce sie zyc [DVD9]\VIDEO_TS\VTS_08_1.VOB
Format : MPEG-PS
File size : 89.6 MiB
Duration : 2mn 24s
Overall bit rate : 5 215 Kbps
Video
ID : 224 (0xE0)
Format : MPEG Video
Format version : Version 2
Format profile : Main@Main
Format settings, BVOP : Yes
Format settings, Matrix : Default
Format settings, GOP : M=3, N=12
Duration : 2mn 24s
Bit rate mode : Variable
Bit rate : 4 919 Kbps
Nominal bit rate : 7 000 Kbps
Width : 720 pixels
Height : 576 pixels
Display aspect ratio : 16:9
Frame rate : 25.000 fps
Standard : PAL
Color space : YUV
Chroma subsampling : 4:2:0
Bit depth : 8 bits
Scan type : Progressive
Compression mode : Lossy
Bits/(Pixel*Frame) : 0.474
Stream size : 84.5 MiB (94%)
Audio
ID : 128 (0x80)
Format : AC-3
Format/Info : Audio Coding 3
Mode extension : CM (complete main)
Duration : 2mn 24s
Bit rate mode : Constant
Bit rate : 192 Kbps
Channel(s) : 2 channels
Channel positions : Front: L R
Sampling rate : 48.0 KHz
Bit depth : 16 bits
Compression mode : Lossy
Video delay : -80ms
Stream size : 3.30 MiB (4%)
Menu
General
Complete name : D:\Мои релизы\Chce sie zyc [DVD9]\VIDEO_TS\VTS_09_0.BUP
Format : DVD Video
Format profile : Program
File size : 18.0 KiB
Duration : 2mn 0s
Overall bit rate : 1 222 bps
Video
ID : 224 (0xE0)
Format : MPEG Video
Format version : Version 2
Duration : 2mn 0s
Bit rate mode : Variable
Width : 720 pixels
Height : 576 pixels
Display aspect ratio : 16:9
Frame rate : 25.000 fps
Standard : PAL
Compression mode : Lossy
Audio
ID : 128 (0x80)
Format : AC-3
Format/Info : Audio Coding 3
Duration : 2mn 0s
Channel(s) : 2 channels
Sampling rate : 48.0 KHz
Compression mode : Lossy
Language : Swedish
Menu #1
Duration : 2mn 0s
00:00:00.000 : Chapter 1
List (Audio) : 0
Menu #2
Duration : 2mn 0s
00:00:00.000 : Chapter 1
List (Audio) : 0
Menu #3
General
Complete name : D:\Мои релизы\Chce sie zyc [DVD9]\VIDEO_TS\VTS_09_0.IFO
Format : DVD Video
Format profile : Program
File size : 18.0 KiB
Duration : 2mn 0s
Overall bit rate : 1 222 bps
Video
ID : 224 (0xE0)
Format : MPEG Video
Format version : Version 2
Duration : 2mn 0s
Bit rate mode : Variable
Width : 720 pixels
Height : 576 pixels
Display aspect ratio : 16:9
Frame rate : 25.000 fps
Standard : PAL
Compression mode : Lossy
Audio
ID : 128 (0x80)
Format : AC-3
Format/Info : Audio Coding 3
Duration : 2mn 0s
Channel(s) : 2 channels
Sampling rate : 48.0 KHz
Compression mode : Lossy
Language : Swedish
Menu #1
Duration : 2mn 0s
00:00:00.000 : Chapter 1
List (Audio) : 0
Menu #2
Duration : 2mn 0s
00:00:00.000 : Chapter 1
List (Audio) : 0
Menu #3
General
Complete name : D:\Мои релизы\Chce sie zyc [DVD9]\VIDEO_TS\VTS_09_0.VOB
Format : MPEG-PS
File size : 152 KiB
Duration : 520ms
Overall bit rate : 2 395 Kbps
Video
ID : 224 (0xE0)
Format : MPEG Video
Format version : Version 2
Format profile : Main@Main
Format settings, BVOP : Yes
Format settings, Matrix : Default
Duration : 520ms
Bit rate mode : Constant
Bit rate : 2 000 Kbps
Width : 720 pixels
Height : 576 pixels
Display aspect ratio : 4:3
Frame rate : 25.000 fps
Standard : PAL
Color space : YUV
Chroma subsampling : 4:2:0
Bit depth : 8 bits
Scan type : Interlaced
Scan order : Top Field First
Compression mode : Lossy
Bits/(Pixel*Frame) : 0.193
Stream size : 127 KiB (84%)
Menu
General
Complete name : D:\Мои релизы\Chce sie zyc [DVD9]\VIDEO_TS\VTS_09_1.VOB
Format : MPEG-PS
File size : 73.1 MiB
Duration : 2mn 0s
Overall bit rate : 5 080 Kbps
Video
ID : 224 (0xE0)
Format : MPEG Video
Format version : Version 2
Format profile : Main@Main
Format settings, BVOP : Yes
Format settings, Matrix : Default
Format settings, GOP : M=3, N=12
Duration : 2mn 0s
Bit rate mode : Variable
Bit rate : 4 787 Kbps
Nominal bit rate : 7 000 Kbps
Width : 720 pixels
Height : 576 pixels
Display aspect ratio : 16:9
Frame rate : 25.000 fps
Standard : PAL
Color space : YUV
Chroma subsampling : 4:2:0
Bit depth : 8 bits
Scan type : Progressive
Compression mode : Lossy
Bits/(Pixel*Frame) : 0.462
Stream size : 68.8 MiB (94%)
Audio
ID : 128 (0x80)
Format : AC-3
Format/Info : Audio Coding 3
Mode extension : CM (complete main)
Duration : 2mn 0s
Bit rate mode : Constant
Bit rate : 192 Kbps
Channel(s) : 2 channels
Channel positions : Front: L R
Sampling rate : 48.0 KHz
Bit depth : 16 bits
Compression mode : Lossy
Video delay : -80ms
Stream size : 2.76 MiB (4%)
Menu
General
Complete name : D:\Мои релизы\Chce sie zyc [DVD9]\VIDEO_TS\VTS_10_0.BUP
Format : DVD Video
Format profile : Program
File size : 18.0 KiB
Duration : 2mn 10s
Overall bit rate : 1 125 bps
Video
ID : 224 (0xE0)
Format : MPEG Video
Format version : Version 2
Duration : 2mn 10s
Bit rate mode : Variable
Width : 720 pixels
Height : 576 pixels
Display aspect ratio : 16:9
Frame rate : 25.000 fps
Standard : PAL
Compression mode : Lossy
Audio
ID : 128 (0x80)
Format : AC-3
Format/Info : Audio Coding 3
Duration : 2mn 10s
Channel(s) : 2 channels
Sampling rate : 48.0 KHz
Compression mode : Lossy
Language : English
Menu #1
Duration : 2mn 10s
00:00:00.000 : Chapter 1
List (Audio) : 0
Menu #2
Duration : 2mn 10s
00:00:00.000 : Chapter 1
List (Audio) : 0
Menu #3
General
Complete name : D:\Мои релизы\Chce sie zyc [DVD9]\VIDEO_TS\VTS_10_0.IFO
Format : DVD Video
Format profile : Program
File size : 18.0 KiB
Duration : 2mn 10s
Overall bit rate : 1 125 bps
Video
ID : 224 (0xE0)
Format : MPEG Video
Format version : Version 2
Duration : 2mn 10s
Bit rate mode : Variable
Width : 720 pixels
Height : 576 pixels
Display aspect ratio : 16:9
Frame rate : 25.000 fps
Standard : PAL
Compression mode : Lossy
Audio
ID : 128 (0x80)
Format : AC-3
Format/Info : Audio Coding 3
Duration : 2mn 10s
Channel(s) : 2 channels
Sampling rate : 48.0 KHz
Compression mode : Lossy
Language : English
Menu #1
Duration : 2mn 10s
00:00:00.000 : Chapter 1
List (Audio) : 0
Menu #2
Duration : 2mn 10s
00:00:00.000 : Chapter 1
List (Audio) : 0
Menu #3
General
Complete name : D:\Мои релизы\Chce sie zyc [DVD9]\VIDEO_TS\VTS_10_0.VOB
Format : MPEG-PS
File size : 152 KiB
Duration : 520ms
Overall bit rate : 2 395 Kbps
Video
ID : 224 (0xE0)
Format : MPEG Video
Format version : Version 2
Format profile : Main@Main
Format settings, BVOP : Yes
Format settings, Matrix : Default
Duration : 520ms
Bit rate mode : Constant
Bit rate : 2 000 Kbps
Width : 720 pixels
Height : 576 pixels
Display aspect ratio : 4:3
Frame rate : 25.000 fps
Standard : PAL
Color space : YUV
Chroma subsampling : 4:2:0
Bit depth : 8 bits
Scan type : Interlaced
Scan order : Top Field First
Compression mode : Lossy
Bits/(Pixel*Frame) : 0.193
Stream size : 127 KiB (84%)
Menu
General
Complete name : D:\Мои релизы\Chce sie zyc [DVD9]\VIDEO_TS\VTS_10_1.VOB
Format : MPEG-PS
File size : 81.2 MiB
Duration : 2mn 11s
Overall bit rate : 5 199 Kbps
Video
ID : 224 (0xE0)
Format : MPEG Video
Format version : Version 2
Format profile : Main@Main
Format settings, BVOP : Yes
Format settings, Matrix : Default
Format settings, GOP : M=3, N=12
Duration : 2mn 10s
Bit rate mode : Variable
Bit rate : 4 903 Kbps
Nominal bit rate : 7 000 Kbps
Width : 720 pixels
Height : 576 pixels
Display aspect ratio : 16:9
Frame rate : 25.000 fps
Standard : PAL
Color space : YUV
Chroma subsampling : 4:2:0
Bit depth : 8 bits
Scan type : Progressive
Compression mode : Lossy
Bits/(Pixel*Frame) : 0.473
Stream size : 76.5 MiB (94%)
Audio
ID : 128 (0x80)
Format : AC-3
Format/Info : Audio Coding 3
Mode extension : CM (complete main)
Duration : 2mn 11s
Bit rate mode : Constant
Bit rate : 192 Kbps
Channel(s) : 2 channels
Channel positions : Front: L R
Sampling rate : 48.0 KHz
Bit depth : 16 bits
Compression mode : Lossy
Video delay : -80ms
Stream size : 3.00 MiB (4%)
Menu
General
Complete name : D:\Мои релизы\Chce sie zyc [DVD9]\VIDEO_TS\VTS_11_0.BUP
Format : DVD Video
Format profile : Program
File size : 18.0 KiB
Duration : 2mn 5s
Overall bit rate : 1 177 bps
Video
ID : 224 (0xE0)
Format : MPEG Video
Format version : Version 2
Duration : 2mn 5s
Bit rate mode : Variable
Width : 720 pixels
Height : 576 pixels
Display aspect ratio : 16:9
Frame rate : 25.000 fps
Standard : PAL
Compression mode : Lossy
Audio
ID : 128 (0x80)
Format : AC-3
Format/Info : Audio Coding 3
Duration : 2mn 5s
Channel(s) : 2 channels
Sampling rate : 48.0 KHz
Compression mode : Lossy
Language : Polish
Menu #1
Duration : 2mn 5s
00:00:00.000 : Chapter 1
List (Audio) : 0
Menu #2
Duration : 2mn 5s
00:00:00.000 : Chapter 1
List (Audio) : 0
Menu #3
General
Complete name : D:\Мои релизы\Chce sie zyc [DVD9]\VIDEO_TS\VTS_11_0.IFO
Format : DVD Video
Format profile : Program
File size : 18.0 KiB
Duration : 2mn 5s
Overall bit rate : 1 177 bps
Video
ID : 224 (0xE0)
Format : MPEG Video
Format version : Version 2
Duration : 2mn 5s
Bit rate mode : Variable
Width : 720 pixels
Height : 576 pixels
Display aspect ratio : 16:9
Frame rate : 25.000 fps
Standard : PAL
Compression mode : Lossy
Audio
ID : 128 (0x80)
Format : AC-3
Format/Info : Audio Coding 3
Duration : 2mn 5s
Channel(s) : 2 channels
Sampling rate : 48.0 KHz
Compression mode : Lossy
Language : Polish
Menu #1
Duration : 2mn 5s
00:00:00.000 : Chapter 1
List (Audio) : 0
Menu #2
Duration : 2mn 5s
00:00:00.000 : Chapter 1
List (Audio) : 0
Menu #3
General
Complete name : D:\Мои релизы\Chce sie zyc [DVD9]\VIDEO_TS\VTS_11_0.VOB
Format : MPEG-PS
File size : 152 KiB
Duration : 520ms
Overall bit rate : 2 395 Kbps
Video
ID : 224 (0xE0)
Format : MPEG Video
Format version : Version 2
Format profile : Main@Main
Format settings, BVOP : Yes
Format settings, Matrix : Default
Duration : 520ms
Bit rate mode : Constant
Bit rate : 2 000 Kbps
Width : 720 pixels
Height : 576 pixels
Display aspect ratio : 4:3
Frame rate : 25.000 fps
Standard : PAL
Color space : YUV
Chroma subsampling : 4:2:0
Bit depth : 8 bits
Scan type : Interlaced
Scan order : Top Field First
Compression mode : Lossy
Bits/(Pixel*Frame) : 0.193
Stream size : 127 KiB (84%)
Menu
General
Complete name : D:\Мои релизы\Chce sie zyc [DVD9]\VIDEO_TS\VTS_11_1.VOB
Format : MPEG-PS
File size : 63.0 MiB
Duration : 2mn 5s
Overall bit rate : 4 220 Kbps
Video
ID : 224 (0xE0)
Format : MPEG Video
Format version : Version 2
Format profile : Main@Main
Format settings, BVOP : Yes
Format settings, Matrix : Default
Format settings, GOP : M=3, N=12
Duration : 2mn 5s
Bit rate mode : Variable
Bit rate : 3 944 Kbps
Nominal bit rate : 6 000 Kbps
Width : 720 pixels
Height : 576 pixels
Display aspect ratio : 16:9
Frame rate : 25.000 fps
Standard : PAL
Color space : YUV
Chroma subsampling : 4:2:0
Bit depth : 8 bits
Scan type : Progressive
Compression mode : Lossy
Bits/(Pixel*Frame) : 0.380
Stream size : 58.8 MiB (93%)
Audio
ID : 128 (0x80)
Format : AC-3
Format/Info : Audio Coding 3
Mode extension : CM (complete main)
Duration : 2mn 5s
Bit rate mode : Constant
Bit rate : 192 Kbps
Channel(s) : 2 channels
Channel positions : Front: L R
Sampling rate : 48.0 KHz
Bit depth : 16 bits
Compression mode : Lossy
Video delay : -80ms
Stream size : 2.87 MiB (5%)
Menu
General
Complete name : D:\Мои релизы\Chce sie zyc [DVD9]\VIDEO_TS\VTS_12_0.BUP
Format : DVD Video
Format profile : Program
File size : 60.0 KiB
Duration : 35mn 50s
Overall bit rate : 228 bps
Video
ID : 224 (0xE0)
Format : MPEG Video
Format version : Version 2
Duration : 35mn 50s
Bit rate mode : Variable
Width : 720 pixels
Height : 576 pixels
Display aspect ratio : 16:9
Frame rate : 25.000 fps
Standard : PAL
Compression mode : Lossy
Audio
ID : 128 (0x80)
Format : AC-3
Format/Info : Audio Coding 3
Duration : 35mn 50s
Channel(s) : 2 channels
Sampling rate : 48.0 KHz
Compression mode : Lossy
Language : Polish
Menu #1
Duration : 35mn 50s
00:00:00.000 : Chapter 1
00:01:29.880 : Chapter 2
00:04:05.680 : Chapter 3
00:05:22.880 : Chapter 4
00:08:15.720 : Chapter 5
00:09:23.080 : Chapter 6
00:10:07.120 : Chapter 7
00:12:18.080 : Chapter 8
00:16:30.960 : Chapter 9
00:17:33.320 : Chapter 10
00:19:28.600 : Chapter 11
00:26:33.080 : Chapter 12
00:27:46.160 : Chapter 13
00:29:41.800 : Chapter 14
00:34:28.520 : Chapter 15
List (Audio) : 0
Menu #2
Duration : 35mn 50s
00:00:00.000 : Chapter 1
00:00:30.000 : Chapter 2
00:01:07.000 : Chapter 3
00:01:25.000 : Chapter 4
00:01:27.480 : Chapter 5
00:01:35.480 : Chapter 6
00:01:35.640 : Chapter 7
00:01:47.640 : Chapter 8
00:02:03.640 : Chapter 9
00:02:06.640 : Chapter 10
00:02:08.240 : Chapter 11
00:02:19.240 : Chapter 12
00:02:33.240 : Chapter 13
00:02:34.840 : Chapter 14
00:02:39.080 : Chapter 15
List (Audio) : 0
General
Complete name : D:\Мои релизы\Chce sie zyc [DVD9]\VIDEO_TS\VTS_12_0.IFO
Format : DVD Video
Format profile : Program
File size : 60.0 KiB
Duration : 35mn 50s
Overall bit rate : 228 bps
Video
ID : 224 (0xE0)
Format : MPEG Video
Format version : Version 2
Duration : 35mn 50s
Bit rate mode : Variable
Width : 720 pixels
Height : 576 pixels
Display aspect ratio : 16:9
Frame rate : 25.000 fps
Standard : PAL
Compression mode : Lossy
Audio
ID : 128 (0x80)
Format : AC-3
Format/Info : Audio Coding 3
Duration : 35mn 50s
Channel(s) : 2 channels
Sampling rate : 48.0 KHz
Compression mode : Lossy
Language : Polish
Menu #1
Duration : 35mn 50s
00:00:00.000 : Chapter 1
00:01:29.880 : Chapter 2
00:04:05.680 : Chapter 3
00:05:22.880 : Chapter 4
00:08:15.720 : Chapter 5
00:09:23.080 : Chapter 6
00:10:07.120 : Chapter 7
00:12:18.080 : Chapter 8
00:16:30.960 : Chapter 9
00:17:33.320 : Chapter 10
00:19:28.600 : Chapter 11
00:26:33.080 : Chapter 12
00:27:46.160 : Chapter 13
00:29:41.800 : Chapter 14
00:34:28.520 : Chapter 15
List (Audio) : 0
Menu #2
Duration : 35mn 50s
00:00:00.000 : Chapter 1
00:00:30.000 : Chapter 2
00:01:07.000 : Chapter 3
00:01:25.000 : Chapter 4
00:01:27.480 : Chapter 5
00:01:35.480 : Chapter 6
00:01:35.640 : Chapter 7
00:01:47.640 : Chapter 8
00:02:03.640 : Chapter 9
00:02:06.640 : Chapter 10
00:02:08.240 : Chapter 11
00:02:19.240 : Chapter 12
00:02:33.240 : Chapter 13
00:02:34.840 : Chapter 14
00:02:39.080 : Chapter 15
List (Audio) : 0
General
Complete name : D:\Мои релизы\Chce sie zyc [DVD9]\VIDEO_TS\VTS_12_0.VOB
Format : MPEG-PS
File size : 968 KiB
Duration : 30s 80ms
Overall bit rate : 264 Kbps
Video
ID : 224 (0xE0)
Format : MPEG Video
Format version : Version 2
Format profile : Main@Main
Format settings, BVOP : No
Format settings, Matrix : Default
Duration : 40ms
Bit rate mode : Variable
Bit rate : 66.4 Kbps
Nominal bit rate : 7 000 Kbps
Width : 720 pixels
Height : 576 pixels
Display aspect ratio : 16:9
Frame rate : 25.000 fps
Standard : PAL
Color space : YUV
Chroma subsampling : 4:2:0
Bit depth : 8 bits
Scan type : Progressive
Compression mode : Lossy
Bits/(Pixel*Frame) : 0.006
Stream size : 332 Bytes (0%)
Audio
ID : 128 (0x80)
Format : AC-3
Format/Info : Audio Coding 3
Mode extension : CM (complete main)
Duration : 30s 80ms
Bit rate mode : Constant
Bit rate : 192 Kbps
Channel(s) : 2 channels
Channel positions : Front: L R
Sampling rate : 48.0 KHz
Bit depth : 16 bits
Compression mode : Lossy
Stream size : 705 KiB (73%)
Text #1
ID : 32 (0x20)
Format : RLE
Format/Info : Run-length encoding
Text #2
ID : 33 (0x21)
Format : RLE
Format/Info : Run-length encoding
Menu
General
Complete name : D:\Мои релизы\Chce sie zyc [DVD9]\VIDEO_TS\VTS_12_1.VOB
Format : MPEG-PS
File size : 1 024 MiB
Duration : 33mn 26s
Overall bit rate : 4 282 Kbps
Video
ID : 224 (0xE0)
Format : MPEG Video
Format version : Version 2
Format profile : Main@Main
Format settings, BVOP : Yes
Format settings, Matrix : Default
Format settings, GOP : M=3, N=12
Duration : 33mn 26s
Bit rate mode : Variable
Bit rate : 4 005 Kbps
Nominal bit rate : 8 500 Kbps
Width : 720 pixels
Height : 576 pixels
Display aspect ratio : 16:9
Frame rate : 25.000 fps
Standard : PAL
Color space : YUV
Chroma subsampling : 4:2:0
Bit depth : 8 bits
Scan type : Progressive
Compression mode : Lossy
Bits/(Pixel*Frame) : 0.386
Stream size : 958 MiB (94%)
Audio
ID : 128 (0x80)
Format : AC-3
Format/Info : Audio Coding 3
Mode extension : CM (complete main)
Duration : 33mn 25s
Bit rate mode : Constant
Bit rate : 192 Kbps
Channel(s) : 2 channels
Channel positions : Front: L R
Sampling rate : 48.0 KHz
Bit depth : 16 bits
Compression mode : Lossy
Video delay : -80ms
Stream size : 45.9 MiB (4%)
Menu
General
Complete name : D:\Мои релизы\Chce sie zyc [DVD9]\VIDEO_TS\VTS_12_2.VOB
Format : MPEG-PS
File size : 73.6 MiB
Duration : 2mn 25s
Overall bit rate : 4 255 Kbps
Video
ID : 224 (0xE0)
Format : MPEG Video
Format version : Version 2
Format profile : Main@Main
Format settings, BVOP : Yes
Format settings, Matrix : Default
Format settings, GOP : M=3, N=12
Duration : 2mn 24s
Bit rate mode : Variable
Bit rate : 3 978 Kbps
Nominal bit rate : 8 500 Kbps
Width : 720 pixels
Height : 576 pixels
Display aspect ratio : 16:9
Frame rate : 25.000 fps
Standard : PAL
Color space : YUV
Chroma subsampling : 4:2:0
Bit depth : 8 bits
Scan type : Progressive
Compression mode : Lossy
Bits/(Pixel*Frame) : 0.384
Stream size : 68.4 MiB (93%)
Audio
ID : 128 (0x80)
Format : AC-3
Format/Info : Audio Coding 3
Mode extension : CM (complete main)
Duration : 2mn 25s
Bit rate mode : Constant
Bit rate : 192 Kbps
Channel(s) : 2 channels
Channel positions : Front: L R
Sampling rate : 48.0 KHz
Bit depth : 16 bits
Compression mode : Lossy
Video delay : -760ms
Stream size : 3.32 MiB (5%)
Menu
Скриншоты менюСкриншотыСкриншоты доп. материалов

_________________
Показать сообщения:    

Текущее время: Сегодня 14:46

Часовой пояс: GMT



Вы не можете начинать темы
Вы не можете отвечать на сообщения
Вы не можете редактировать свои сообщения
Вы не можете удалять свои сообщения
Вы не можете голосовать в опросах
Вы не можете прикреплять файлы к сообщениям
Вы не можете скачивать файлы
Наши партнеры: интернет магазин Ивановского трикотажа textilla.ru