Хоть раз в жизни / Begin again (Джон Карни / John Carney) [2013, США, драма, мелодрама, комедия, музыка, BDRip 1080p] Dub + Sub Rus, Eng + Original Eng :: Ивановский Торрент трекер
Важное объявление!
У Нас Все раздачи мультитрекерные, при нуле пиров в релизах, можете смело вставать на закачку!
Статистика раздачи
Размер:     |    Зарегистрирован:     |    Скачан:     |   
Нет
 
     
 
 
Автор Сообщение

HUNTER

Стаж:
4 года 11 месяцев
Сообщений:
66098

Репутация: 101

[+] [-]
Вне форума [Профиль] [ЛС]

Хоть раз в жизни / Begin again
Страна: США
Жанр: драма, мелодрама, комедия, музыка
Год выпуска: 2013
Продолжительность: 01:44:25
Перевод: Профессиональный (дублированный)
Cубтитры: Russian (Full), English (Forced [Only Lyrics], Full, SDH, SDH Colored)
Оригинальная аудиодорожка: английский-Режиссер: Джон Карни / John Carney-В ролях: Кира Найтли, Марк Руффало, Адам Левин, Джеймс Корден, Хейли Стайнфелд, Ясин Бей, Кэтрин Кинер, Эндрю Селлон, Карен Питтман, Пол Ромеро-Описание: Они живут в сердце музыкального мира, в Нью-Йорке. Дэн - легенда шоу-бизнеса и бывший глава музыкального лейбла. Грета – музыкант и бывшая девушка рок-звезды. Но люди бывшими и оказываются для того, чтобы начать все сначала.
Случайная встреча с Гретой дает Дэну новый шанс. Они решают вместе записать альбом. У них нет ни денег, ни профессиональных музыкантов, но все это не важно, потому что Грета и Дэн готовы к самым неожиданным поворотам и в музыке, и в любви. Их студией становится весь Нью-Йорк.-Релиз:
by Elheym-Качество видео: BDRip
Формат видео: MKV
Видео: 1920x1040 at 23,976 fps, x264@L4.1, crf, ~10300 kbps avg
Аудио 1: Russian: 48 kHz, AC3, 3/2 (L,C,R,l,r) + LFE ch, ~448.00 kbps avg
Аудио 2: English: 48 kHz/24-bit, DTS 5.1, ~1509 kbps avg-
  • Скачать сэмпл-

Дополнительно

Код:
Сохранены оригинальные главы как на Blu-ray
Русские субтитры набиты по дубляжу
За ремукс спасибо - LexxBlack

MediaInfo

Код:
Формат                                   : Matroska
Версия формата                           : Version 2
Размер файла                             : 9,16 Гбайт
Продолжительность                        : 1 ч. 44 м.
Общий поток                              : 12,6 Мбит/сек
Название фильма                          : Хоть раз в жизни / Begin again (2013) - Release for HDCLUB
Дата кодирования                         : UTC 2016-05-25 18:39:25
Программа кодирования                    : mkvmerge v3.4.0 ('Rapunzel') сборка от May 15 2010 09:38:20
Библиотека кодирования                   : libebml v0.8.0 + libmatroska v0.9.0
Видео
Идентификатор                            : 1
Формат                                   : AVC
Формат/Информация                        : Advanced Video Codec
Профиль формата                          : High@L4.1
Параметр CABAC формата                   : Да
Параметр ReFrames формата                : 4 кадра
Идентификатор кодека                     : V_MPEG4/ISO/AVC
Продолжительность                        : 1 ч. 44 м.
Битрейт                                  : 10,3 Мбит/сек
Ширина                                   : 1920 пикселей
Высота                                   : 1040 пикселей
Соотношение сторон                       : 1,85:1
Режим частоты кадров                     : Постоянный
Частота кадров                           : 23,976 (24000/1001) кадра/сек
Цветовое пространство                    : YUV
Субдискретизация насыщенности            : 4:2:0
Битовая глубина                          : 8 бит
Тип развёртки                            : Прогрессивная
Бит/(Пиксели*Кадры)                      : 0.216
Размер потока                            : 7,55 Гбайт (82%)
Заголовок                                : Хоть раз в жизни / Begin again (2013) - Release for HDCLUB
Библиотека кодирования                   : x264 core 148 r2692+54 69a6f49 t_mod_Custom [8-bit@all X86_64]
Настройки программы                      : cabac=1 / ref=3 / deblock=1:-2:-2 / analyse=0x3:0x113 / me=umh / subme=11 / psy=1 / fade_compensate=0.00 / psy_rd=0.80:0.00 / mixed_ref=1 / me_range=24 / chroma_me=1 / trellis=2 / 8x8dct=1 / cqm=0 / deadzone=21,11 / fast_pskip=0 / chroma_qp_offset=-2 / threads=6 / lookahead_threads=2 / sliced_threads=0 / nr=0 / decimate=1 / interlaced=0 / bluray_compat=0 / constrained_intra=0 / fgo=0 / bframes=9 / b_pyramid=2 / b_adapt=2 / b_bias=0 / direct=3 / weightb=1 / open_gop=0 / weightp=2 / keyint=230 / keyint_min=23 / scenecut=40 / intra_refresh=0 / rc_lookahead=80 / rc=crf / mbtree=0 / crf=17.8000 / qcomp=0.70 / qpmin=0:0:0 / qpmax=69:69:69 / qpstep=4 / vbv_maxrate=50000 / vbv_bufsize=62500 / crf_max=0.0 / nal_hrd=none / filler=0 / ip_ratio=1.40 / pb_ratio=1.30 / aq=3:0.80 / aq-sensitivity=10.00 / aq-factor=1.00:1.00:1.00 / aq2=0 / aq3=1:[0.50:0.50]:[0.50:0.50]:[0.50:0.50]:[0.50:0.50] / aq3-sensitivity=10.00 / aq3-factor=[1.00:1.00]:[1.00:1.00]:[1.00:1.00] / aq3-boundary=192:64:24
Язык                                     : English
Default                                  : Нет
Forced                                   : Нет
Аудио #1
Идентификатор                            : 2
Формат                                   : AC-3
Формат/Информация                        : Audio Coding 3
Расширение режима                        : CM (complete main)
Параметр Endianness формата              : Big
Идентификатор кодека                     : A_AC3
Продолжительность                        : 1 ч. 44 м.
Вид битрейта                             : Постоянный
Битрейт                                  : 448 Кбит/сек
Каналы                                   : 6 каналов
Расположение каналов                     : Front: L C R, Side: L R, LFE
Частота                                  : 48,0 КГц
Частота кадров                           : 31,250 кадров/сек (1536 spf)
Метод сжатия                             : С потерями
Размер потока                            : 335 Мбайт (4%)
Заголовок                                : AC3 5.1 @ 448 kbps - Dub
Язык                                     : Russian
Default                                  : Нет
Forced                                   : Нет
Аудио #2
Идентификатор                            : 3
Формат                                   : DTS
Формат/Информация                        : Digital Theater Systems
Режим                                    : 16
Параметр Endianness формата              : Big
Идентификатор кодека                     : A_DTS
Продолжительность                        : 1 ч. 44 м.
Вид битрейта                             : Постоянный
Битрейт                                  : 1509 Кбит/сек
Каналы                                   : 6 каналов
Расположение каналов                     : Front: L C R, Side: L R, LFE
Частота                                  : 48,0 КГц
Частота кадров                           : 93,750 кадра/сек (512 spf)
Битовая глубина                          : 24 бит
Метод сжатия                             : С потерями
Размер потока                            : 1,10 Гбайт (12%)
Заголовок                                : DTS 5.1 @ 1509 kbps - Original
Язык                                     : English
Default                                  : Нет
Forced                                   : Нет
Текст #1
Идентификатор                            : 4
Формат                                   : UTF-8
Идентификатор кодека                     : S_TEXT/UTF8
Идентификатор кодека/Информация          : UTF-8 Plain Text
Заголовок                                : Full
Язык                                     : Russian
Default                                  : Нет
Forced                                   : Нет
Текст #2
Идентификатор                            : 5
Формат                                   : UTF-8
Идентификатор кодека                     : S_TEXT/UTF8
Идентификатор кодека/Информация          : UTF-8 Plain Text
Заголовок                                : Forced, Only Lyrics
Язык                                     : English
Default                                  : Да
Forced                                   : Нет
Текст #3
Идентификатор                            : 6
Формат                                   : UTF-8
Идентификатор кодека                     : S_TEXT/UTF8
Идентификатор кодека/Информация          : UTF-8 Plain Text
Заголовок                                : Full
Язык                                     : English
Default                                  : Нет
Forced                                   : Нет
Текст #4
Идентификатор                            : 7
Формат                                   : UTF-8
Идентификатор кодека                     : S_TEXT/UTF8
Идентификатор кодека/Информация          : UTF-8 Plain Text
Заголовок                                : SDH
Язык                                     : English
Default                                  : Нет
Forced                                   : Нет
Текст #5
Идентификатор                            : 8
Формат                                   : UTF-8
Идентификатор кодека                     : S_TEXT/UTF8
Идентификатор кодека/Информация          : UTF-8 Plain Text
Заголовок                                : SDH Colored
Язык                                     : English
Default                                  : Нет
Forced                                   : Нет
Меню
00:00:00.000                             : :Chapter 01
00:04:11.168                             : :Chapter 02
00:14:54.519                             : :Chapter 03
00:20:58.715                             : :Chapter 04
00:25:27.985                             : :Chapter 05
00:31:09.326                             : :Chapter 06
00:37:08.893                             : :Chapter 07
00:42:25.793                             : :Chapter 08
00:49:11.239                             : :Chapter 09
00:53:41.301                             : :Chapter 10
00:57:56.139                             : :Chapter 11
01:01:53.168                             : :Chapter 12
01:07:04.270                             : :Chapter 13
01:12:41.314                             : :Chapter 14
01:17:24.849                             : :Chapter 15
01:21:33.972                             : :Chapter 16
01:25:44.805                             : :Chapter 17
01:28:31.264                             : :Chapter 18
01:34:04.722                             : :Chapter 19
01:39:01.686                             : :Chapter 20
01:42:38.819                             : :Chapter 21

Скриншоты


_________________
Показать сообщения:    

Текущее время: Сегодня 14:14

Часовой пояс: GMT



Вы не можете начинать темы
Вы не можете отвечать на сообщения
Вы не можете редактировать свои сообщения
Вы не можете удалять свои сообщения
Вы не можете голосовать в опросах
Вы не можете прикреплять файлы к сообщениям
Вы не можете скачивать файлы