Важное объявление!
У Нас Все раздачи мультитрекерные, при нуле пиров в релизах, можете смело вставать на закачку!
 
Автор Сообщение

HUNTER

Стаж:
4 года 7 месяцев
Сообщений:
61573

Репутация: 101

[+] [-]
Вне форума [Профиль] [ЛС]


Хороший динозавр | The Good Dinosaur
«Tiny but tough»
-
Страна: США | Pixar Animation Studios, Walt Disney Pictures
Жанр: фэнтези, комедия, приключения, семейный
Продолжительность: 01:33:50
Год выпуска: 2015
Перевод: Профессиональный (дублированный) Blu-ray EUR
Субтитры: Russian (Full, Blu-ray EUR), English (Full, SDH), Fre, Spa, Russian (Commentary Blu-ray EUR), English (Commentary Blu-ray EUR)-Режиссёр: Питер Сон / Peter Sohn
Роли озвучивали: Джеффри Райт, Фрэнсис МакДорманд, Малиа Нипай-Падилья, Райан Типл, Джек МакГроу, Маркус Скрибнер, Рэймонд Очоа, Джек Брайт, Питер Сон, Стив Зан, Мэнди Фройнд, Стивен Клэй Хантер, А.Дж. Бакли, Анна Пакуин, Сэм Эллиотт, Дэвид Боат, Кэрри Пафф, Кэлам Грант, Джон Ратценбергер-ОписаниеПо сюжету динозавры не вымерли, а эволюционировали в разумных существ и живут и здравствуют на Земле. А вот люди остались на довольно примитивной стадии развития. Фильм расскажет историю дружбы динозавра и маленького мальчика.-
Хороший динозавр — американский компьютеро-анимационный фильм студии Pixar. Премьера состоялась 25 ноября 2015 года. Режиссёр — Питер Сон, ранее работавший над мультфильмом «Переменная облачность»
Релиз:

Сэмпл

IMDb: 6.90 (29 869)
Качество: BDRip 1080p The Good Dinosaur 2015 1080p Blu-ray Remux AVC DTS-HD MA 7.1 - KRaLiMaRKo
Формат: MKV
Видео: AVC 12.4 Mbps 1920 x 804 (2.388) 23.976 fps
Аудио: AC-3 640 Kbps 6 channels, 48.0 KHz DUB Blu-ray EUR
Аудио 2: DTS 1509 Kbps 6 channels, 48.0 KHz Eng
Аудио 3: AC-3 320 Kbps 2 channels, 48.0 KHz Eng | Commentary from director Peter Sohn
Субтитры: Rus, Eng, Fre, Spa

MI | Log

Log
x264 [info]: frame I:1209 Avg QP:15.35 size:332372
x264 [info]: frame P:42152 Avg QP:15.65 size:110596
x264 [info]: frame B:91349 Avg QP:18.96 size: 42358
x264 [info]: consecutive B-frames: 11.0% 4.6% 10.3% 31.3% 18.6% 20.3% 2.0% 1.0% 0.8%
x264 [info]: mb I I16..4: 7.5% 72.3% 20.2%
x264 [info]: mb P I16..4: 2.3% 20.7% 3.8% P16..4: 23.3% 24.1% 13.5% 3.7% 0.8% skip: 7.8%
x264 [info]: mb B I16..4: 0.6% 6.7% 0.9% B16..8: 28.0% 21.6% 4.3% direct: 9.1% skip:28.7% L0:36.6% L1:38.7% BI:24.7%
x264 [info]: 8x8 transform intra:78.4% inter:49.5%
x264 [info]: direct mvs spatial:99.5% temporal:0.5%
x264 [info]: coded y,uvDC,uvAC intra: 86.0% 90.7% 72.8% inter: 35.0% 34.0% 12.2%
x264 [info]: i16 v,h,dc,p: 20% 15% 17% 48%
x264 [info]: i8 v,h,dc,ddl,ddr,vr,hd,vl,hu: 10% 13% 14% 9% 10% 9% 11% 11% 14%
x264 [info]: i4 v,h,dc,ddl,ddr,vr,hd,vl,hu: 32% 11% 14% 5% 8% 7% 8% 6% 8%
x264 [info]: i8c dc,h,v,p: 45% 25% 16% 14%
x264 [info]: Weighted P-Frames: Y:4.1% UV:3.3%
x264 [info]: ref P L0: 63.3% 13.2% 15.9% 6.1% 1.5% 0.0%
x264 [info]: ref B L0: 91.3% 7.0% 1.7%
x264 [info]: ref B L1: 95.3% 4.7%
x264 [info]: kb/s:12719.42
x264 [total]: encoded 134710 frames, 4.68 fps, 12719.43 kb/s, duration 8:00:00.19
Dinosaur [2015].1080p.mkv
Format : Matroska
Format version : Version 4 / Version 2
File size : 9.94 GiB
Duration : 1h 33mn
Overall bit rate : 15.2 Mbps
Encoded date : UTC 2016-03-20 10:20:07
Writing application : mkvmerge v6.7.0 ('Back to the Ground') 32bit built on Jan 8 2014 15:03:17
Writing library : libebml v1.3.0 + libmatroska v1.4.1
Video
ID : 1
Format : AVC
Format/Info : Advanced Video Codec
Format profile : High@L4.1
Format settings, CABAC : Yes
Format settings, ReFrames : 4 frames
Codec ID : V_MPEG4/ISO/AVC
Duration : 1h 33mn
Bit rate : 12.4 Mbps
Width : 1 920 pixels
Height : 804 pixels
Display aspect ratio : 2.40:1
Frame rate mode : Constant
Frame rate : 23.976 (24000/1001) fps
Color space : YUV
Chroma subsampling : 4:2:0
Bit depth : 8 bits
Scan type : Progressive
Bits/(Pixel*Frame) : 0.335
Stream size : 8.12 GiB (82%)
Title : The Good Dinosaur (2015) [rutracker.org] 1080p
Writing library : x264 core 148 r2638kMod 7599210
Encoding settings : cabac=1 / ref=4 / deblock=1:-3:-2 / analyse=0x3:0x133 / me=umh / subme=11 / psy=1 / fade_compensate=0.00 / psy_rd=1.00:0.05 / mixed_ref=1 / me_range=48 / chroma_me=1 / trellis=2 / 8x8dct=1 / cqm=0 / deadzone=21,11 / fast_pskip=0 / chroma_qp_offset=-3 / threads=12 / lookahead_threads=2 / sliced_threads=0 / nr=0 / decimate=1 / interlaced=0 / bluray_compat=0 / constrained_intra=0 / fgo=0 / bframes=8 / b_pyramid=2 / b_adapt=2 / b_bias=0 / direct=3 / weightb=1 / open_gop=0 / weightp=2 / keyint=250 / keyint_min=23 / scenecut=40 / intra_refresh=0 / rc_lookahead=60 / rc=crf / mbtree=0 / crf=16.6000 / qcomp=0.60 / qpmin=0 / qpmax=69 / qpstep=4 / vbv_maxrate=50000 / vbv_bufsize=62500 / crf_max=0.0 / nal_hrd=none / filler=0 / ip_ratio=1.40 / pb_ratio=1.30 / aq=3:0.90
Language : English
Default : Yes
Forced : No
Audio #1
ID : 2
Format : AC-3
Format/Info : Audio Coding 3
Mode extension : CM (complete main)
Format settings, Endianness : Big
Codec ID : A_AC3
Duration : 1h 33mn
Bit rate mode : Constant
Bit rate : 640 Kbps
Channel(s) : 6 channels
Channel positions : Front: L C R, Side: L R, LFE
Sampling rate : 48.0 KHz
Frame rate : 31.250 fps (1536 spf)
Compression mode : Lossy
Stream size : 430 MiB (4%)
Title : DUB Blu-ray EUR
Language : Russian
Default : Yes
Forced : No
Audio #2
ID : 3
Format : DTS
Format/Info : Digital Theater Systems
Mode : 16
Format settings, Endianness : Big
Codec ID : A_DTS
Duration : 1h 33mn
Bit rate mode : Constant
Bit rate : 1 509 Kbps
Channel(s) : 6 channels
Channel positions : Front: L C R, Side: L R, LFE
Sampling rate : 48.0 KHz
Frame rate : 93.750 fps (512 spf)
Bit depth : 24 bits
Compression mode : Lossy
Stream size : 1 013 MiB (10%)
Title : Original
Language : English
Default : No
Forced : No
Audio #3
ID : 4
Format : AC-3
Format/Info : Audio Coding 3
Mode extension : CM (complete main)
Format settings, Endianness : Big
Codec ID : A_AC3
Duration : 1h 33mn
Bit rate mode : Constant
Bit rate : 320 Kbps
Channel(s) : 2 channels
Channel positions : Front: L R
Sampling rate : 48.0 KHz
Frame rate : 31.250 fps (1536 spf)
Compression mode : Lossy
Stream size : 215 MiB (2%)
Title : Commentary from director Peter Sohn
Language : English
Default : No
Forced : No
Text #1
ID : 5
Format : UTF-8
Codec ID : S_TEXT/UTF8
Codec ID/Info : UTF-8 Plain Text
Title : Full (Blu-ray EUR)
Language : Russian
Default : No
Forced : No
Text #2
ID : 6
Format : UTF-8
Codec ID : S_TEXT/UTF8
Codec ID/Info : UTF-8 Plain Text
Title : Full
Language : Russian
Default : No
Forced : No
Text #3
ID : 7
Format : UTF-8
Codec ID : S_TEXT/UTF8
Codec ID/Info : UTF-8 Plain Text
Title : Full
Language : English
Default : No
Forced : No
Text #4
ID : 8
Format : UTF-8
Codec ID : S_TEXT/UTF8
Codec ID/Info : UTF-8 Plain Text
Title : SDH
Language : English
Default : No
Forced : No
Text #5
ID : 9
Format : UTF-8
Codec ID : S_TEXT/UTF8
Codec ID/Info : UTF-8 Plain Text
Title : Full
Language : French
Default : No
Forced : No
Text #6
ID : 10
Format : UTF-8
Codec ID : S_TEXT/UTF8
Codec ID/Info : UTF-8 Plain Text
Title : Full
Language : Spanish
Default : No
Forced : No
Text #7
ID : 11
Format : UTF-8
Codec ID : S_TEXT/UTF8
Codec ID/Info : UTF-8 Plain Text
Title : Commentary from director Peter Sohn
Language : Russian
Default : No
Forced : No
Text #8
ID : 12
Format : UTF-8
Codec ID : S_TEXT/UTF8
Codec ID/Info : UTF-8 Plain Text
Title : Commentary from director Peter Sohn
Language : English
Default : No
Forced : No
Menu
00:00:00.000 : en:00:00:00.000
00:03:37.968 : en:00:03:37.968
00:06:16.459 : en:00:06:16.459
00:08:14.160 : en:00:08:14.160
00:12:12.607 : en:00:12:12.607
00:14:33.915 : en:00:14:33.915
00:17:42.353 : en:00:17:42.353
00:21:10.644 : en:00:21:10.644
00:22:58.168 : en:00:22:58.168
00:26:41.058 : en:00:26:41.058
00:29:02.616 : en:00:29:02.616
00:33:10.363 : en:00:33:10.363
00:35:28.668 : en:00:35:28.668
00:38:14.459 : en:00:38:14.459
00:41:08.841 : en:00:41:08.841
00:45:42.948 : en:00:45:42.948
00:47:47.948 : en:00:47:47.948
00:51:48.272 : en:00:51:48.272
00:55:46.969 : en:00:55:46.969
01:00:22.953 : en:01:00:22.953
01:03:59.002 : en:01:03:59.002
01:05:27.215 : en:01:05:27.215
01:07:11.778 : en:01:07:11.778
01:11:06.429 : en:01:11:06.429
01:13:43.377 : en:01:13:43.377
01:16:01.432 : en:01:16:01.432
01:19:08.494 : en:01:19:08.494
01:23:56.865 : en:01:23:56.865
01:26:01.114 : en:01:26:01.114[/pre]

Сравнения

Сравнение с релизом Rustick666
My

Rustick666

Rip vs Source

Rip

Source
скрытый текст

_________________
Показать сообщения:    

Текущее время: Сегодня 06:46

Часовой пояс: GMT



Вы не можете начинать темы
Вы не можете отвечать на сообщения
Вы не можете редактировать свои сообщения
Вы не можете удалять свои сообщения
Вы не можете голосовать в опросах
Вы не можете прикреплять файлы к сообщениям
Вы не можете скачивать файлы
Наши партнеры: интернет магазин Ивановского трикотажа textilla.ru