Хороший динозавр / The Good Dinosaur (Питер Сон / Peter Sohn) [2015, США, мультфильм, фэнтези, комедия, приключения, семейный, BDRemux 1080p] [Локализованный видеоряд] DUB + AVO (Живов, Сербин) + Original (Eng) + SUB (rus, eng) :: Ивановский Торрент трекер
Важное объявление!
У Нас Все раздачи мультитрекерные, при нуле пиров в релизах, можете смело вставать на закачку!
 
Автор Сообщение

HUNTER

Стаж:
4 года 11 месяцев
Сообщений:
66045

Репутация: 101

[+] [-]
Вне форума [Профиль] [ЛС]

Хороший динозавр / The Good Dinosaur
«Tiny but tough»-
Год выпуска: 2015
Страна: США
Жанр: мультфильм, фэнтези, комедия, приключения, семейный
Продолжительность: 01:33:50
Перевод:
Профессиональный (Дублированный)
Авторский (Одноголосый закадровый) - Юрий Живов
Авторский (Одноголосый закадровый) - Юрий Сербин
русские субтитры: есть-Режиссёр: Питер Сон / Peter Sohn-Роли озвучивали: Джеффри Райт, Фрэнсис МакДорманд, Малиа Нипай-Падилья, Райан Типл, Джек МакГроу, Маркус Скрибнер, Рэймонд Очоа, Джек Брайт, Питер Сон, Стив Зан
Роли дублировали: Максим Сергеев, Регина Щукина, Александра Петрова, Дмитрий Головин, Сергей Маркеев-Описание: По сюжету динозавры не вымерли, а эволюционировали в разумных существ и живут и здравствуют на Земле. А вот люди остались на довольно примитивной стадии развития. Фильм расскажет историю дружбы динозавра и маленького мальчика.- -Качество: BDRemux 1080p |[url=viewtopic.php?t=5192865]Blu-Ray[/url]|
Формат: MKV
Видео: 1920x1080, 24044 kbps 1080p / 23,976 fps / 16:9 / High Profile 4.1
Аудио 1: [RUS] AC3 5.1 / 48 kHz / 640 kbps - DUB
Аудио 2: [RUS] DTS-MA 5.1 / 48 kHz / 3336 kbps / 24-bit (DTS Core: 5.1 / 48 kHz / 1509 kbps / 24-bit) - Юрий Живов
Аудио 3: [RUS] DTS-MA 5.1 / 48 kHz / 3331 kbps / 24-bit (DTS Core: 5.1 / 48 kHz / 1509 kbps / 24-bit) - Юрий Сербин
Аудио 4: [ENG] DTS-MA 7.1 / 48 kHz / 3344 kbps / 24-bit (DTS Core: 5.1 / 48 kHz / 1509 kbps / 24-bit)
Аудио 5: [ENG] AC3 2.0 / 48 kHz / 320 kbps / Dolby Surround - coment
субтитры: русские (full, coment), английские (full, sdh, coment)
навигация по главам: 29 глав (не именные)

Скриншоты

MI

Общее
Уникальный идентификатор : 192677225932169389481760372032865132916 (0x90F448ADD445FBFD84A4067EC9156174)
Полное имя : D:\The Good Dinosaur\The Good Dinosaur.2015.BDRemux 1080p.mkv
Формат : Matroska
Версия формата : Version 4 / Version 2
Размер файла : 22,8 Гбайт
Продолжительность : 1 ч. 33 м.
Режим общего битрейта : Переменный
Общий поток : 34,8 Мбит/сек
Название фильма : The Good Dinosaur.2015.BDRemux 1080p -Azureus-
Дата кодирования : UTC 2016-09-19 16:13:35
Программа кодирования : mkvmerge v9.4.0 ('Knurl') 64bit
Библиотека кодирования : libebml v1.3.4 + libmatroska v1.4.5
Видео
Идентификатор : 1
Формат : AVC
Формат/Информация : Advanced Video Codec
Профиль формата : High@L4.1
Параметр CABAC формата : Да
Параметр ReFrames формата : 4 кадра
Параметр GOP формата : M=1, N=12
Идентификатор кодека : V_MPEG4/ISO/AVC
Продолжительность : 1 ч. 33 м.
Вид битрейта : Переменный
Битрейт : 23,8 Мбит/сек
Максимальный битрейт : 32,0 Мбит/сек
Ширина : 1920 пикселей
Высота : 1080 пикселей
Соотношение сторон : 16:9
Режим частоты кадров : Постоянный
Частота кадров : 23,976 (24000/1001) кадра/сек
Цветовое пространство : YUV
Субдискретизация насыщенности : 4:2:0
Битовая глубина : 8 бит
Тип развёртки : Прогрессивная
Бит/(Пиксели*Кадры) : 0.479
Размер потока : 15,6 Гбайт (68%)
Default : Да
Forced : Да
Аудио #1
Идентификатор : 2
Формат : AC-3
Формат/Информация : Audio Coding 3
Расширение режима : CM (complete main)
Параметр Endianness формата : Big
Идентификатор кодека : A_AC3
Продолжительность : 1 ч. 33 м.
Вид битрейта : Постоянный
Битрейт : 640 Кбит/сек
Каналы : 6 каналов
Расположение каналов : Front: L C R, Side: L R, LFE
Частота : 48,0 КГц
Частота кадров : 31,250 кадров/сек (1536 spf)
Метод сжатия : С потерями
Размер потока : 430 Мбайт (2%)
Заголовок : DUB
Язык : Russian
Default : Да
Forced : Да
Аудио #2
Идентификатор : 3
Формат : DTS
Формат/Информация : Digital Theater Systems
Профиль формата : MA / Core
Режим : 16
Параметр Endianness формата : Big
Идентификатор кодека : A_DTS
Продолжительность : 1 ч. 33 м.
Вид битрейта : Переменный / Постоянный
Битрейт : 3336 Кбит/сек / 1509 Кбит/сек
Каналы : 8 каналов / 6 каналов
Расположение каналов : Front: L C R, Side: L R, Back: L R, LFE / Front: L C R, Side: L R, LFE
Частота : 48,0 КГц
Частота кадров : 93,750 кадра/сек (512 spf)
Битовая глубина : 24 бит
Метод сжатия : Без потерь / Lossy
Размер потока : 2,19 Гбайт (10%)
Заголовок : AVO - Живов
Язык : Russian
Default : Нет
Forced : Нет
Аудио #3
Идентификатор : 4
Формат : DTS
Формат/Информация : Digital Theater Systems
Профиль формата : MA / Core
Режим : 16
Параметр Endianness формата : Big
Идентификатор кодека : A_DTS
Продолжительность : 1 ч. 33 м.
Вид битрейта : Переменный / Постоянный
Битрейт : 3331 Кбит/сек / 1509 Кбит/сек
Каналы : 8 каналов / 6 каналов
Расположение каналов : Front: L C R, Side: L R, Back: L R, LFE / Front: L C R, Side: L R, LFE
Частота : 48,0 КГц
Частота кадров : 93,750 кадра/сек (512 spf)
Битовая глубина : 24 бит
Метод сжатия : Без потерь / Lossy
Размер потока : 2,18 Гбайт (10%)
Заголовок : AVO - Сербин
Язык : Russian
Default : Нет
Forced : Нет
Аудио #4
Идентификатор : 5
Формат : DTS
Формат/Информация : Digital Theater Systems
Профиль формата : MA / Core
Режим : 16
Параметр Endianness формата : Big
Идентификатор кодека : A_DTS
Продолжительность : 1 ч. 33 м.
Вид битрейта : Переменный / Постоянный
Битрейт : 3344 Кбит/сек / 1509 Кбит/сек
Каналы : 8 каналов / 6 каналов
Расположение каналов : Front: L C R, Side: L R, Back: L R, LFE / Front: L C R, Side: L R, LFE
Частота : 48,0 КГц
Частота кадров : 93,750 кадра/сек (512 spf)
Битовая глубина : 24 бит
Метод сжатия : Без потерь / Lossy
Размер потока : 2,19 Гбайт (10%)
Заголовок : ENG
Язык : English
Default : Нет
Forced : Нет
Аудио #5
Идентификатор : 6
Формат : AC-3
Формат/Информация : Audio Coding 3
Расширение режима : CM (complete main)
Параметр Endianness формата : Big
Идентификатор кодека : A_AC3
Продолжительность : 1 ч. 33 м.
Вид битрейта : Постоянный
Битрейт : 320 Кбит/сек
Каналы : 2 канала
Расположение каналов : Front: L R
Частота : 48,0 КГц
Частота кадров : 31,250 кадров/сек (1536 spf)
Метод сжатия : С потерями
Размер потока : 215 Мбайт (1%)
Заголовок : ENG coment
Язык : English
Default : Нет
Forced : Нет
Текст #1
Идентификатор : 7
Формат : UTF-8
Идентификатор кодека : S_TEXT/UTF8
Идентификатор кодека/Информация : UTF-8 Plain Text
Продолжительность : 1 ч. 24 м.
Битрейт : 36 бит/сек
Count of elements : 480
Размер потока : 22,7 Кбайт (0%)
Заголовок : Rus Sub - full
Язык : Russian
Default : Нет
Forced : Нет
Текст #2
Идентификатор : 8
Формат : UTF-8
Идентификатор кодека : S_TEXT/UTF8
Идентификатор кодека/Информация : UTF-8 Plain Text
Продолжительность : 1 ч. 26 м.
Битрейт : 209 бит/сек
Count of elements : 1815
Размер потока : 133 Кбайт (0%)
Заголовок : Rus Sub - coment
Язык : Russian
Default : Нет
Forced : Нет
Текст #3
Идентификатор : 9
Формат : UTF-8
Идентификатор кодека : S_TEXT/UTF8
Идентификатор кодека/Информация : UTF-8 Plain Text
Продолжительность : 1 ч. 21 м.
Битрейт : 23 бит/сек
Count of elements : 477
Размер потока : 13,8 Кбайт (0%)
Заголовок : Eng Sub - full
Язык : English
Default : Нет
Forced : Нет
Текст #4
Идентификатор : 10
Формат : UTF-8
Идентификатор кодека : S_TEXT/UTF8
Идентификатор кодека/Информация : UTF-8 Plain Text
Продолжительность : 1 ч. 23 м.
Битрейт : 31 бит/сек
Count of elements : 885
Размер потока : 19,4 Кбайт (0%)
Заголовок : Eng Sub - sdh
Язык : English
Default : Нет
Forced : Нет
Текст #5
Идентификатор : 11
Формат : UTF-8
Идентификатор кодека : S_TEXT/UTF8
Идентификатор кодека/Информация : UTF-8 Plain Text
Продолжительность : 1 ч. 26 м.
Битрейт : 140 бит/сек
Count of elements : 1810
Размер потока : 89,1 Кбайт (0%)
Заголовок : Eng Sub - coment
Язык : English
Default : Нет
Forced : Нет
Меню
00:00:00.000 : en:00:00:00.000
00:03:37.968 : en:00:03:37.968
00:06:16.459 : en:00:06:16.459
00:08:14.160 : en:00:08:14.160
00:12:12.607 : en:00:12:12.607
00:14:33.915 : en:00:14:33.915
00:17:42.353 : en:00:17:42.353
00:21:10.644 : en:00:21:10.644
00:22:58.168 : en:00:22:58.168
00:26:41.058 : en:00:26:41.058
00:29:02.616 : en:00:29:02.616
00:33:10.363 : en:00:33:10.363
00:35:28.668 : en:00:35:28.668
00:38:14.459 : en:00:38:14.459
00:41:08.841 : en:00:41:08.841
00:45:42.948 : en:00:45:42.948
00:47:47.948 : en:00:47:47.948
00:51:48.272 : en:00:51:48.272
00:55:46.969 : en:00:55:46.969
01:00:22.953 : en:01:00:22.953
01:03:59.002 : en:01:03:59.002
01:05:27.215 : en:01:05:27.215
01:07:11.778 : en:01:07:11.778
01:11:06.429 : en:01:11:06.429
01:13:43.377 : en:01:13:43.377
01:16:01.432 : en:01:16:01.432
01:19:08.494 : en:01:19:08.494
01:23:56.865 : en:01:23:56.865
01:26:01.114 : en:01:26:01.114

BDInfo

DISC INFO:
Disc Title: Good Dinosaur
Disc Size: 44 036 086 161 bytes
Protection: AACS
BD-Java: Yes
BDInfo: 0.5.8
PLAYLIST REPORT:
Name: 00803.MPLS
Length: 1:33:50.458 (h:m:s.ms)
Size: 25 658 370 048 bytes
Total Bitrate: 36,46 Mbps
VIDEO:
Codec Bitrate Description
----- ------- -----------
MPEG-4 AVC Video 24044 kbps 1080p / 23,976 fps / 16:9 / High Profile 4.1
AUDIO:
Codec Language Bitrate Description
----- -------- ------- -----------
DTS-HD Master Audio English 3344 kbps 7.1 / 48 kHz / 3344 kbps / 24-bit (DTS Core: 5.1 / 48 kHz / 1509 kbps / 24-bit)
DTS-HD High-Res Audio English 2046 kbps 5.1 / 48 kHz / 2046 kbps / 24-bit (DTS Core: 5.1 / 48 kHz / 1509 kbps / 24-bit)
DTS Audio Portuguese 1509 kbps 5.1 / 48 kHz / 1509 kbps / 24-bit
DTS Audio Spanish 1509 kbps 5.1 / 48 kHz / 1509 kbps / 24-bit
Dolby Digital Audio Russian 640 kbps 5.1 / 48 kHz / 640 kbps
Dolby Digital Audio English 320 kbps 2.0 / 48 kHz / 320 kbps / Dolby Surround
Dolby Digital Audio English 320 kbps 2.0 / 48 kHz / 320 kbps / DN -4dB
SUBTITLES:
Codec Language Bitrate Description
----- -------- ------- -----------
Presentation Graphics English 20,599 kbps
Presentation Graphics English 83,214 kbps
Presentation Graphics Portuguese 13,171 kbps
Presentation Graphics Russian 12,490 kbps
Presentation Graphics Russian 71,306 kbps
Presentation Graphics Spanish 12,402 kbps
Presentation Graphics Spanish 74,037 kbps
FILES:
Name Time In Length Size Total Bitrate
---- ------- ------ ---- -------------
00301.M2TS 0:00:00.000 0:00:45.295 211 126 272 37 289
00331.M2TS 0:00:45.295 0:00:22.355 100 478 976 35 957
00303.M2TS 0:01:07.650 0:00:32.741 149 729 280 36 585
00332.M2TS 0:01:40.391 0:00:31.114 141 901 824 36 485
00305.M2TS 0:02:11.506 1:23:46.271 23 026 569 216 36 650
00333.M2TS 1:25:57.777 0:07:28.364 1 917 880 320 34 220
00307.M2TS 1:33:26.142 0:00:24.315 110 684 160 36 415

_________________
Показать сообщения:    

Текущее время: Сегодня 19:15

Часовой пояс: GMT



Вы не можете начинать темы
Вы не можете отвечать на сообщения
Вы не можете редактировать свои сообщения
Вы не можете удалять свои сообщения
Вы не можете голосовать в опросах
Вы не можете прикреплять файлы к сообщениям
Вы не можете скачивать файлы