Важное объявление!
У Нас Все раздачи мультитрекерные, при нуле пиров в релизах, можете смело вставать на закачку!
 
Автор Сообщение

HUNTER

Стаж:
4 года 8 месяцев
Сообщений:
62050

Репутация: 101

[+] [-]
Вне форума [Профиль] [ЛС]

Хороший динозавр / The Good Dinosaur-
Страна: США
Жанр: Мультфильм, Фэнтези, Комедия, Приключения, Семейный
Продолжительность: 01:33:38
Год выпуска: 2015
Перевод: Профессиональный (дублированный) | iTunes
Cубтитры: русские, английские
Оригинальная аудиодорожка: Английская-Режиссёр: Питер Сон / Peter Sohn
Роли озвучивали: Джеффри Райт, Фрэнсис МакДорманд, Малиа Нипай-Падилья, Райан Типл, Джек МакГроу, Маркус Скрибнер, Рэймонд Очоа, Джек Брайт, Питер Сон, Стив Зан, Мэнди Фройнд, Стивен Клэй Хантер, А.Дж. Бакли, Анна Пакуин, Сэм Эллиотт, Дэвид Боат, Кэрри Пафф, Кэлам Грант, Джон Ратценбергер-Описание: По сюжету динозавры не вымерли, а эволюционировали в разумных существ и живут и здравствуют на Земле. А вот люди остались на довольно примитивной стадии развития. Фильм расскажет историю дружбы динозавра и маленького мальчика.- -Качество: BDRip 720p | L
Формат: MKV
Видео: MPEG-4 AVC Video ~6460 kbps 1280x536 / 23,976 fps / 2.40:1 / High Profile 4.1
Аудио:
Русский: 48 kHz, AC3 Dolby Digital, 3/2 (L,C,R,l,r) + LFE ch, ~384 kbps
Английский: 48 kHz, DTS, 3/2 (L,C,R,l,r) + LFE ch, ~1509.00 kbps avg
Формат субтитров: softsub (SRT)

MediaInfo

Код:
Уникальный идентификатор                 : 220835443660704472071959758272995092484 (0xA6235BFFDB692851B0BB51F1F7D96804)
Полное имя                               : E:\V.temp\The Good Dinosaur 2015 1080p Blu-ray AVC DTS-HD MA 7.1\The.Good.Dinosaur.2015.BluRay.720p.DD5.1.x264-L.mkv
Формат                                   : Matroska
Версия формата                           : Version 4 / Version 2
Размер файла                             : 5,53 Гбайт
Продолжительность                        : 1 ч. 33 м.
Общий поток                              : 8430 Кбит/сек
Название фильма                          : The.Good.Dinosaur.2015.BluRay.720p.DD5.1.x264-L
Дата кодирования                         : UTC 2016-03-14 19:44:31
Программа кодирования                    : mkvmerge v7.7.0 ('Six Voices') 32bit built on Feb 28 2015 23:23:00
Библиотека кодирования                   : libebml v1.3.1 + libmatroska v1.4.2
Обложка                                  : Yes
Attachments                              : cover.jpg
Видео
Идентификатор                            : 1
Формат                                   : AVC
Формат/Информация                        : Advanced Video Codec
Профиль формата                          : High@L4.1
Параметр CABAC формата                   : Да
Параметр ReFrames формата                : 12 кадров
Идентификатор кодека                     : V_MPEG4/ISO/AVC
Продолжительность                        : 1 ч. 33 м.
Битрейт                                  : 6535 Кбит/сек
Ширина                                   : 1280 пикселей
Высота                                   : 536 пикселей
Соотношение сторон                       : 2,40:1
Режим частоты кадров                     : Постоянный
Частота кадров                           : 23,976 (24000/1001) кадра/сек
Цветовое пространство                    : YUV
Субдискретизация насыщенности            : 4:2:0
Битовая глубина                          : 8 бит
Тип развёртки                            : Прогрессивная
Бит/(Пиксели*Кадры)                      : 0.397
Размер потока                            : 4,28 Гбайт (78%)
Заголовок                                : The.Good.Dinosaur.2015.BluRay.720p.DD5.1.x264-L
Библиотека кодирования                   : x264 core 146 r2538 121396c
Настройки программы                      : cabac=1 / ref=12 / deblock=1:-2:-1 / analyse=0x3:0x133 / me=umh / subme=11 / psy=1 / psy_rd=1.05:0.10 / mixed_ref=1 / me_range=32 / chroma_me=1 / trellis=2 / 8x8dct=1 / cqm=0 / deadzone=21,11 / fast_pskip=0 / chroma_qp_offset=-4 / threads=6 / lookahead_threads=1 / sliced_threads=0 / nr=0 / decimate=1 / interlaced=0 / bluray_compat=0 / constrained_intra=0 / bframes=9 / b_pyramid=2 / b_adapt=2 / b_bias=0 / direct=1 / weightb=1 / open_gop=0 / weightp=2 / keyint=230 / keyint_min=21 / scenecut=40 / intra_refresh=0 / rc_lookahead=60 / rc=crf / mbtree=0 / crf=16.0 / qcomp=0.70 / qpmin=0 / qpmax=69 / qpstep=4 / vbv_maxrate=30000 / vbv_bufsize=40000 / crf_max=0.0 / nal_hrd=none / filler=0 / ip_ratio=1.35 / pb_ratio=1.25 / aq=2:0.90
Язык                                     : English
Default                                  : Да
Forced                                   : Нет
Аудио #1
Идентификатор                            : 2
Формат                                   : AC-3
Формат/Информация                        : Audio Coding 3
Расширение режима                        : CM (complete main)
Параметр Endianness формата              : Big
Идентификатор кодека                     : A_AC3
Продолжительность                        : 1 ч. 33 м.
Вид битрейта                             : Постоянный
Битрейт                                  : 384 Кбит/сек
Каналы                                   : 6 каналов
Расположение каналов                     : Front: L C R, Side: L R, LFE
Частота                                  : 48,0 КГц
Частота кадров                           : 31,250 кадров/сек (1536 spf)
Метод сжатия                             : С потерями
Задержка видео                           : 800 мс.
Размер потока                            : 257 Мбайт (5%)
Заголовок                                : DD5.1@384
Язык                                     : Russian
Default                                  : Да
Forced                                   : Нет
Аудио #2
Идентификатор                            : 3
Формат                                   : DTS
Формат/Информация                        : Digital Theater Systems
Режим                                    : 16
Параметр Endianness формата              : Big
Идентификатор кодека                     : A_DTS
Продолжительность                        : 1 ч. 33 м.
Вид битрейта                             : Постоянный
Битрейт                                  : 1509 Кбит/сек
Каналы                                   : 6 каналов
Расположение каналов                     : Front: L C R, Side: L R, LFE
Частота                                  : 48,0 КГц
Частота кадров                           : 93,750 кадра/сек (512 spf)
Битовая глубина                          : 24 бит
Метод сжатия                             : С потерями
Размер потока                            : 1013 Мбайт (18%)
Заголовок                                : DTS5.1@1510
Язык                                     : efi
Default                                  : Нет
Forced                                   : Нет
Текст #1
Идентификатор                            : 4
Формат                                   : UTF-8
Идентификатор кодека                     : S_TEXT/UTF8
Идентификатор кодека/Информация          : UTF-8 Plain Text
Продолжительность                        : 1 ч. 24 м.
Битрейт                                  : 35 бит/сек
Count of elements                        : 493
Размер потока                            : 22,1 Кбайт (0%)
Язык                                     : Russian
Default                                  : Да
Forced                                   : Нет
Текст #2
Идентификатор                            : 5
Формат                                   : UTF-8
Идентификатор кодека                     : S_TEXT/UTF8
Идентификатор кодека/Информация          : UTF-8 Plain Text
Продолжительность                        : 1 ч. 21 м.
Битрейт                                  : 24 бит/сек
Count of elements                        : 530
Размер потока                            : 14,4 Кбайт (0%)
Язык                                     : English
Default                                  : Нет
Forced                                   : Нет
Меню
00:00:00.000                             : en:00:00:00.000
00:03:37.968                             : en:00:03:37.968
00:06:16.459                             : en:00:06:16.459
00:08:14.160                             : en:00:08:14.160
00:12:12.607                             : en:00:12:12.607
00:14:33.915                             : en:00:14:33.915
00:17:42.353                             : en:00:17:42.353
00:21:10.644                             : en:00:21:10.644
00:22:58.168                             : en:00:22:58.168
00:26:41.058                             : en:00:26:41.058
00:29:02.616                             : en:00:29:02.616
00:33:10.363                             : en:00:33:10.363
00:35:28.668                             : en:00:35:28.668
00:38:14.459                             : en:00:38:14.459
00:41:08.841                             : en:00:41:08.841
00:45:42.948                             : en:00:45:42.948
00:47:47.948                             : en:00:47:47.948
00:51:48.272                             : en:00:51:48.272
00:55:46.969                             : en:00:55:46.969
01:00:22.953                             : en:01:00:22.953
01:03:59.002                             : en:01:03:59.002
01:05:27.215                             : en:01:05:27.215
01:07:11.778                             : en:01:07:11.778
01:11:06.429                             : en:01:11:06.429
01:13:43.377                             : en:01:13:43.377
01:16:01.432                             : en:01:16:01.432
01:19:08.494                             : en:01:19:08.494
01:23:56.865                             : en:01:23:56.865
01:26:01.114                             : en:01:26:01.114
Код:
x264 [info]: frame I:1266  Avg QP:15.35  size:188086  PSNR Mean Y:47.88 U:51.54 V:51.78 Avg:48.76 Global:48.01
x264 [info]: frame P:35094 Avg QP:16.63  size: 61660  PSNR Mean Y:46.10 U:50.06 V:50.32 Avg:46.99 Global:46.05
x264 [info]: frame B:98635 Avg QP:18.82  size: 22274  PSNR Mean Y:45.49 U:49.90 V:50.26 Avg:46.43 Global:45.18
x264 [info]: consecutive B-frames:  5.0%  3.3% 13.2% 31.6% 17.0% 20.9%  3.3%  2.3%  2.2%  1.4%

Скриншоты



_________________
Показать сообщения:    

Текущее время: Сегодня 08:42

Часовой пояс: GMT



Вы не можете начинать темы
Вы не можете отвечать на сообщения
Вы не можете редактировать свои сообщения
Вы не можете удалять свои сообщения
Вы не можете голосовать в опросах
Вы не можете прикреплять файлы к сообщениям
Вы не можете скачивать файлы
Наши партнеры: интернет магазин Ивановского трикотажа textilla.ru