Ивановский Торрент трекер
Яндекс.Погода
 

[Цитировать]
HUNTER

Хороший денек для свадьбы / Cheerful Weather for the Wedding Страна: Великобритания
Жанр: драма, комедия
Год выпуска: 2012
Продолжительность: 01:28:47
Перевод: Профессиональный (многоголосый закадровый)
Cубтитры: нет
Режиссер: Дональд Райс / Donald Rice
В ролях: Элизабет МакГоверн, Ева Трэйнор, Паола Дионисотти, Софи Стэнтон, Фелисити Джонс, Элизабет Уэбстер, Кеннет Коллар, Элли Кендрик, Зои Таппер, Люк Тредэвэй
Описание: Англия, 1932 год. В утро своей свадьбы Долли в компании бутылки рома предается воспоминаниям о незабываемой прошлогодней любовной интриге. Джозеф, о котором она грезит, также объят приятными воспоминаниями об их романе. Но все дело в том, что Долли собирается замуж за совершенно другого человека. Подготовка к свадьбе уже в самом разгаре. Не хватает только появления на ней бывшего возлюбленного…
Доп.информация:
HDTVRIp тут:
http://rutracker.org/forum/viewtopic.php?t=4814665
http://rutracker.org/forum/viewtopic.php?t=4818610

Сэмпл: http://rusfolder.com/41592264
Тип релиза: HDTV 1080i
Контейнер: TS
Видео: AVC/H.264, PAL, 1920x1080 (16:9), 9053 Кбит/сек, 25.000 fps
Аудио: MP-2, 48000 Hz, 192 Кбит/сек, 2 ch

MediaInfo

Видео
Идентификатор : 224 (0xE0)
Идентификатор меню : 1 (0x1)
Формат : AVC
Формат/Информация : Advanced Video Codec
Профиль формата : High@L4.1
Параметр CABAC формата : Да
Параметр ReFrames формата : 3 кадра
Идентификатор кодека : 27
Продолжительность : 1 ч. 28 м.
Вид битрейта : Постоянный
Битрейт : 9053 Кбит/сек
Ширина : 1920 пикселей
Высота : 1080 пикселей
Соотношение сторон : 16:9
Частота кадров : 25,000 кадров/сек
Стандарт вещания : PAL
Цветовое пространство : YUV
Субдискретизация насыщенности : 4:2:0
Битовая глубина : 8 бит
Тип развёртки : Чересстрочная
Порядок развёртки : Верхнее поле первое
Бит/(Пиксели*Кадры) : 0.175
Размер потока : 5,52 Гбайт (93%)
Основные цвета : BT.709
Характеристики трансфера : BT.709
Коэффициенты матрицы : BT.709
Аудио
Идентификатор : 192 (0xC0)
Идентификатор меню : 1 (0x1)
Формат : MPEG Audio
Версия формата : Version 1
Профиль формата : Layer 2
Идентификатор кодека : 3
Продолжительность : 1 ч. 28 м.
Вид битрейта : Постоянный
Битрейт : 192 Кбит/сек
Каналы : 2 канала
Частота : 48,0 КГц
Метод сжатия : С потерями
Задержка видео : 8 мс.
Размер потока : 122 Мбайт (2%)
Язык : Russian

Скриншот с названием фильма

Скриншоты

ещё постер

Показать сообщения:    

Текущее время: 18-Окт 17:10

Часовой пояс: UTC - 1


Вы не можете начинать темы
Вы не можете отвечать на сообщения
Вы не можете редактировать свои сообщения
Вы не можете удалять свои сообщения
Вы не можете голосовать в опросах
Вы не можете прикреплять файлы к сообщениям
Вы не можете скачивать файлы

!ВНИМАНИЕ!
Сайт не предоставляет электронные версии произведений, а занимается лишь коллекционированием и каталогизацией ссылок, присылаемых и публикуемых на форуме нашими читателями. Если вы являетесь правообладателем какого-либо представленного материала и не желаете, чтобы ссылка на него находилась в нашем каталоге, свяжитесь с нами, и мы незамедлительно удалим ее. Файлы для обмена на трекере предоставлены пользователями сайта, и администрация не несет ответственности за их содержание. Просьба не заливать файлы, защищенные авторскими правами, а также файлы нелегального содержания!