Важное объявление!
У Нас Все раздачи мультитрекерные, при нуле пиров в релизах, можете смело вставать на закачку!
 
Автор Сообщение

HUNTER

Стаж:
4 года 6 месяцев
Сообщений:
61029

Репутация: 101

[+] [-]
Вне форума [Профиль] [ЛС]

Холотропное дыхание / Holotropic Breathwork
Тематика: Medicine, Psychology
Тип раздаваемого материала: Видеоурок
Продолжительность: 00:44:38
Язык: Английский
Перевод: Отсутствует
Описание:
Holotropic Breathwork is a practice that uses breathing and other elements to allow access to non-ordinary states for the purpose of self-exploration. It was developed by Stanislav Grof, M.D., Ph.D. and Christina Grof, Ph.D. . Holotropic breathing has some similarities to rebirthing-breathwork, but was developed independently. Holotropic Breathwork is intended as an approach to self-exploration and healing that integrates insights from modern consciousness research, anthropology, various depth psychologies, transpersonal psychology, Eastern spiritual practices, and mystical traditions of the world. The term holotropic means "moving toward wholeness" (from the Greek holos "whole" and trepein "to turn or direct towards a thing").
What can be achieved with Holotropic Breathwork:
- Release of stress, tension and psychosomatic blockades;
- Integration of unfinished elements of ones life history, birth, and transpersonal experiences;
- Getting awareness about own mental "programs";
- Release from addiction and dependency;
- Processing psychedelic experience;
- Improvement of self-acceptance;
- Increase of joy of living and creativity;
- Facilitation of trust into the universe and of mental / spiritual growth;
- Deeper human encounter, understanding and communication.

Перевод описания Google

Холотропного дыхания является практикой, которая использует дыхание и другие элементы для обеспечения доступа к необычных состояний с целью самостоятельного изучения. Она была разработана Станислав Гроф, доктор медицинских наук, кандидат технических наук и Кристиной Гроф, доктор философии . Холотропного дыхания имеет некоторое сходство с ребефинг-дыхание, но было разработано самостоятельно. Холотропного дыхания предназначен в качестве подхода к самоисследования и исцеления, которая интегрирует идеи из современных исследований сознания, антропологии, психологии различные глубины, трансперсональной психологии, восточных духовных практик и мистических традиций мира. Термин холотропного означает "движется к целостности» (от греческого голограммы "целое" и trepein ", чтобы включить или направлять на вещи").
Что может быть достигнута с холотропного дыхания:
- Выпуск стресса, напряжения и психосоматических блокады;
- Интеграция незавершенные элементы те, истории жизни, рождение и трансперсональные переживания;
- Получение осведомленности о собственных ментальных «программ»;
- Освобождение от наркомании и зависимости;
- Обработка психоделического опыта;
- Улучшение самопринятие;
- Повышение радость жизни и творчества;
- Содействие доверия во Вселенной и психического / духовного роста;
- Deeper человека встреча, понимание и общение.

MediaInfo

General
Complete name : D:\Download\Holotropic Breathwork\VTS_01_1.VOB
Format : MPEG-PS
File size : 1 024 MiB
Duration : 36mn 44s
Overall bit rate mode : Variable
Overall bit rate : 3 896 Kbps
Video
ID : 224 (0xE0)
Format : MPEG Video
Format version : Version 2
Format profile : Main@Main
Format settings, BVOP : Yes
Format settings, Matrix : Custom
Format settings, GOP : M=3, N=15
Duration : 36mn 44s
Bit rate mode : Variable
Bit rate : 3 626 Kbps
Maximum bit rate : 7 000 Kbps
Width : 720 pixels
Height : 480 pixels
Display aspect ratio : 4:3
Frame rate : 29.970 fps
Standard : NTSC
Color space : YUV
Chroma subsampling : 4:2:0
Bit depth : 8 bits
Scan type : Interlaced
Scan order : Top Field First
Compression mode : Lossy
Bits/(Pixel*Frame) : 0.350
Stream size : 953 MiB (93%)
Audio
ID : 189 (0xBD)-128 (0x80)
Format : AC-3
Format/Info : Audio Coding 3
Mode extension : CM (complete main)
Format settings, Endianness : Big
Muxing mode : DVD-Video
Duration : 36mn 44s
Bit rate mode : Constant
Bit rate : 192 Kbps
Channel(s) : 2 channels
Channel positions : Front: L R
Sampling rate : 48.0 KHz
Bit depth : 16 bits
Compression mode : Lossy
Delay relative to video : -66ms
Stream size : 50.5 MiB (5%)
Качество: DVD5
Формат: DVD video
Видео кодек: MPEG2
Видео: MPEG2 ~3918 kbps NTSC 4:3 | (720x480)
Аудио: AC3, 192 kb/s (2 ch)

Скриншоты


_________________
Показать сообщения:    

Текущее время: Сегодня 01:36

Часовой пояс: GMT



Вы не можете начинать темы
Вы не можете отвечать на сообщения
Вы не можете редактировать свои сообщения
Вы не можете удалять свои сообщения
Вы не можете голосовать в опросах
Вы не можете прикреплять файлы к сообщениям
Вы не можете скачивать файлы
Наши партнеры: интернет магазин Ивановского трикотажа textilla.ru