Ивановский Торрент трекер
Яндекс.Погода
 

[Цитировать]
HUNTER

--Холостяк
Серии: 1-4 из 4-- Год выпуска: 2013
Производство: Piople Films LLC
Жанр: Комедия, криминал
Продолжительность: ~ 00:45:00 Серии
Перевод: Не требуется
Субтитры: Украинские (Вшитые)--Режиссёр: Владимир Янковский--В ролях: Владимир Епифанцев, Лилия Мэй, Глеб Сердюков, Михаил Мамаев, Алексей Панин, Андрей Косташ, Игорь Писный, Максим Панькив--Описание: Действие картины разворачивается в Одессе, где происходит убийство криминального авторитета по кличке Шалый. Группировка, в которую входил Шалый, занимается наркотрафиком в Турцию. Руководит всей одесской наркомафией Бурый — неуязвимый бандит, о поимке которого мечтает даже Интерпол. Убийство Шалого означает, что на всю группировку Бурого началась странная охота. Однако кто же руководит отстрелом его людей, Бурый не понимает и не находит ничего лучше, как затаиться.--Качество: SATRip / Сэмпл--Формат: AVI
Видео кодек: XviD
Аудио кодек: AC3
Видео: 704x400 (1.76:1), 25 fps, XviD build 50 ~1732 kbps avg, 0.25 bit/pixel
Аудио: 48 kHz, AC3 Dolby Digital, 2/0 (L,R) ch, ~192 kbps--Релиз от: --

MI


Общее
Полное имя : C:\Users\SAM\Desktop\Холостяк\Холостяк 3-я Серия.avi
Формат : AVI
Формат/Информация : Audio Video Interleave
Размер файла : 600 Мбайт
Продолжительность : 43 м.
Общий поток : 1934 Кбит/сек
Программа кодирования : VirtualDubMod 1.5.10.2 (build 2540/release)
Библиотека кодирования : VirtualDubMod build 2540/release
Видео
Идентификатор : 0
Формат : MPEG-4 Visual
Профиль формата : Advanced Simple@L5
Параметр BVOP формата : 1
Параметр QPel формата : Нет
Параметр GMC формата : Без точки перехода
Параметр матрицы формата : Default (H.263)
Идентификатор кодека : XVID
Идентификатор кодека/Подсказка : XviD
Продолжительность : 43 м.
Битрейт : 1733 Кбит/сек
Ширина : 704 пикселя
Высота : 400 пикселей
Соотношение сторон : 16:9
Частота кадров : 25,000 кадров/сек
Цветовое пространство : YUV
Субдискретизация насыщенности : 4:2:0
Битовая глубина : 8 бит
Тип развёртки : Прогрессивная
Метод сжатия : С потерями
Бит/(Пиксели*Кадры) : 0.246
Размер потока : 538 Мбайт (90%)
Библиотека кодирования : XviD 1.2.1 (UTC 2008-12-04)
Аудио
Идентификатор : 1
Формат : AC-3
Формат/Информация : Audio Coding 3
Расширение режима : CM (complete main)
Параметр Endianness формата : Big
Идентификатор кодека : 2000
Продолжительность : 43 м.
Вид битрейта : Постоянный
Битрейт : 192 Кбит/сек
Каналы : 2 канала
Расположение каналов : Front: L R
Частота : 48,0 КГц
Битовая глубина : 16 бит
Метод сжатия : С потерями
Размер потока : 59,6 Мбайт (10%)
Выравнивание : Соединение по промежуткам
Продолжительность промежутка : 40 мс. (1,00 видеокадр)
Время предзагрузки промежутка : 512 мс.
--

Скриншоты

-- --
--


Показать сообщения:    

Текущее время: 18-Дек 13:03

Часовой пояс: UTC ± 0


Вы не можете начинать темы
Вы не можете отвечать на сообщения
Вы не можете редактировать свои сообщения
Вы не можете удалять свои сообщения
Вы не можете голосовать в опросах
Вы не можете прикреплять файлы к сообщениям
Вы не можете скачивать файлы

!ВНИМАНИЕ!
Сайт не предоставляет электронные версии произведений, а занимается лишь коллекционированием и каталогизацией ссылок, присылаемых и публикуемых на форуме нашими читателями. Если вы являетесь правообладателем какого-либо представленного материала и не желаете, чтобы ссылка на него находилась в нашем каталоге, свяжитесь с нами, и мы незамедлительно удалим ее. Файлы для обмена на трекере предоставлены пользователями сайта, и администрация не несет ответственности за их содержание. Просьба не заливать файлы, защищенные авторскими правами, а также файлы нелегального содержания!