Важное объявление!
У Нас Все раздачи мультитрекерные, при нуле пиров в релизах, можете смело вставать на закачку!
 
Автор Сообщение

HUNTER

Стаж:
4 года 8 месяцев
Сообщений:
62091

Репутация: 101

[+] [-]
Вне форума [Профиль] [ЛС]


Холодное сердце | Frozen
«От создателей 'Tangled' (Рапунцель) и 'Wreck-It Ralph' (Ральф)...»
Оригинальный видеоряд
-
Страна: США
Производство: Walt Disney Animation Studios, Walt Disney Pictures
Жанр: Мюзикл, фэнтези, комедия, мелодрама, приключения
Продолжительность: 01:42:13
Год выпуска: 2013
Перевод: Профессиональный (дублированный) Blu-ray CEE
Перевод 3: Авторский (одноголосый закадровый) Ю. Сербин
Перевод 3: Авторский (одноголосый закадровый) Ю .Живов
Перевод 4: Профессиональный (дублированный) Ukrainian iTunes
Русские субтитры: есть
Режиссёр: Крис Бак / Chris Buck, Дженнифер Ли / Jennifer Lee
Роли озвучивали: Кристен Белл (Anna, озвучка), Идина Мензел (Elsa, озвучка), Джонатан Грофф (Kristoff, озвучка), Джош Гад (Olaf, озвучка), Сантино Фонтана (Hans, озвучка), Алан Тьюдик (Duke, озвучка), Киаран Хайндс (Pabbie / Grandpa, озвучка), Крис Уильямс (Oaken, озвучка), Стивен Дж. Андерсон (Kai, озвучка), Майа Уилсон (Bulda, озвучка), Эди МакКлёрг (Gerda, озвучка), Роберт Пайн (Bishop, озвучка)
Дублировали: Наталия Быстрова (Anna), Анна Бутурлина (Elsa), Андрей Бирин (Kristoff), Сергей Пенкин (Olaf), Дима Билан (Hans), Владимир Рыбальченко (Pabbie), Сергей Чихачев (Kai), Анастасия Лапина (Bulda)- Описание Когда древнее предсказание сбывается и королевство погружается в объятия вечной зимы, трое бесстрашных героев - принцесса Анна, отважный Кристофф и его верный олень Свен - отправляются в горы, чтобы найти сестру Анны, Эльзу, которая может снять со страны леденящее заклятие. По пути их ждет множество увлекательных сюрпризов и захватывающих приключений: встреча с мистическими троллями, знакомство с очаровательным снеговиком по имени Олаф, горные вершины покруче Эвереста и магия в каждой снежинке. Анне и Кристоффу предстоит сплотиться и противостоять могучей стихии, чтобы спасти королевство и тех, кто им дорог...-
«Холо́дное се́рдце» (Frozen) — компьютерный анимационный фильм 2013 года, пятьдесят третий полнометражный мультфильм, созданный студией «Walt Disney Animation Studios» и выпущенный компанией «Walt Disney Pictures»
Релиз:

Сэмпл

IMDb: 7.70 (297 109)


Оскар, 2014 год
Победитель (2):
Лучшая песня — «Song: Let It Go»
Лучший анимационный фильм
Золотой глобус, 2014 год
Победитель (1):
Лучший анимационный фильм
Британская академия, 2014 год
Победитель (1):
Лучший анимационный фильм
Жорж, 2014 год
Победитель (1):
Лучший анимационный фильм
Сатурн, 2014 год
Победитель (1):
Лучший анимационный фильм

Качество: BDRip 720p Frozen.2013.BDRemux.(1080p).ExKinoRay Оригинальный видеоряд
Формат: MKV
Видео: AVC 4023 Kbps 1136 x 508 (2.236) 23.976 fps
Аудио: AC-3 640 Kbps 6 channels, 48.0 KHz Dub Blu-ray CEE
Аудио 2: AC-3 640 Kbps 6 channels, 48.0 KHz AVO Ю. Сербин
Аудио 3: AC-3 640 Kbps 6 channels, 48.0 KHz AVO Ю.Живов
Аудио 4: AC-3 384 Kbps 6 channels, 48.0 KHz Dub Ukr iTunes
Аудио 5: AC-3 640 Kbps 6 channels, 48.0 KHz Eng
Субтитры: Russian (3) , Ukr (Forced), English, English (SDH), English (SDH-COLORED) SRT

MI | Log

Log
x264 [info]: frame I:1232 Avg QP:11.26 size:143340
x264 [info]: frame P:39361 Avg QP:13.52 size: 39592
x264 [info]: frame B:106453 Avg QP:16.41 size: 13663
x264 [info]: consecutive B-frames: 2.7% 4.3% 28.4% 26.4% 14.1% 21.1% 1.1% 0.4% 0.5% 0.5% 0.5%
x264 [info]: mb I I16..4: 12.6% 57.2% 30.2%
x264 [info]: mb P I16..4: 0.6% 11.1% 2.3% P16..4: 21.2% 24.5% 14.2% 4.5% 0.8% skip:20.8%
x264 [info]: mb B I16..4: 0.1% 2.3% 0.3% B16..8: 24.1% 19.3% 4.6% direct: 5.0% skip:44.3% L0:37.9% L1:45.0% BI:17.1%
x264 [info]: 8x8 transform intra:78.4% inter:41.9%
x264 [info]: direct mvs spatial:99.8% temporal:0.2%
x264 [info]: coded y,uvDC,uvAC intra: 94.2% 86.7% 76.5% inter: 20.0% 20.0% 11.6%
x264 [info]: i16 v,h,dc,p: 17% 14% 13% 56%
x264 [info]: i8 v,h,dc,ddl,ddr,vr,hd,vl,hu: 9% 12% 9% 9% 11% 10% 13% 11% 15%
x264 [info]: i4 v,h,dc,ddl,ddr,vr,hd,vl,hu: 11% 9% 5% 9% 15% 13% 14% 11% 13%
x264 [info]: i8c dc,h,v,p: 42% 28% 16% 14%
x264 [info]: Weighted P-Frames: Y:2.9% UV:2.3%
x264 [info]: ref P L0: 56.7% 8.1% 16.5% 5.8% 3.9% 3.1% 2.4% 1.6% 1.4% 0.6% 0.0%
x264 [info]: ref B L0: 78.1% 10.9% 4.7% 2.3% 1.7% 1.3% 0.8% 0.3%
x264 [info]: ref B L1: 92.7% 7.3%
x264 [info]: kb/s:4160.38
x264 [total]: encoded 147046 frames, 9.42 fps, 4160.38 kb/s, duration 4:20:03.10
Format : Matroska
Format version : Version 4 / Version 2
File size : 5.08 GiB
Duration : 1h 42mn
Overall bit rate : 7 108 Kbps
Encoded date : UTC 2015-05-15 17:58:06
Writing application : mkvmerge v6.7.0 ('Back to the Ground') 32bit built on Jan 8 2014 15:03:17
Writing library : libebml v1.3.0 + libmatroska v1.4.1
Video
ID : 1
Format : AVC
Format/Info : Advanced Video Codec
Format profile : High@L4.1
Format settings, CABAC : Yes
Format settings, ReFrames : 9 frames
Codec ID : V_MPEG4/ISO/AVC
Duration : 1h 42mn
Bit rate : 4 023 Kbps
Width : 1 280 pixels
Height : 572 pixels
Display aspect ratio : 2.25:1
Frame rate mode : Constant
Frame rate : 23.976 fps
Color space : YUV
Chroma subsampling : 4:2:0
Bit depth : 8 bits
Scan type : Progressive
Bits/(Pixel*Frame) : 0.229
Stream size : 2.87 GiB (57%)
Title : Frozen (2013) [rutracker.org]
Writing library : x264 core 146 r2538kMod 121396c
Encoding settings : cabac=1 / ref=9 / deblock=1:-3:-2 / analyse=0x3:0x133 / me=umh / subme=11 / psy=1 / fade_compensate=0.00 / psy_rd=1.00:0.05 / mixed_ref=1 / me_range=32 / chroma_me=1 / trellis=2 / 8x8dct=1 / cqm=0 / deadzone=21,11 / fast_pskip=0 / chroma_qp_offset=-3 / threads=12 / lookahead_threads=3 / sliced_threads=0 / nr=0 / decimate=1 / interlaced=0 / bluray_compat=0 / constrained_intra=0 / fgo=0 / bframes=10 / b_pyramid=2 / b_adapt=2 / b_bias=0 / direct=3 / weightb=1 / open_gop=0 / weightp=2 / keyint=250 / keyint_min=23 / scenecut=40 / intra_refresh=0 / rc_lookahead=80 / rc=crf / mbtree=0 / crf=15.8000 / qcomp=0.60 / qpmin=0 / qpmax=69 / qpstep=4 / vbv_maxrate=50000 / vbv_bufsize=62500 / crf_max=0.0 / nal_hrd=none / filler=0 / ip_ratio=1.40 / pb_ratio=1.30 / aq=3:0.90
Language : English
Default : Yes
Forced : No
Audio #1
ID : 2
Format : AC-3
Format/Info : Audio Coding 3
Mode extension : CM (complete main)
Format settings, Endianness : Big
Codec ID : A_AC3
Duration : 1h 42mn
Bit rate mode : Constant
Bit rate : 640 Kbps
Channel(s) : 6 channels
Channel positions : Front: L C R, Side: L R, LFE
Sampling rate : 48.0 KHz
Bit depth : 16 bits
Compression mode : Lossy
Stream size : 468 MiB (9%)
Title : DUB Blu-ray CEE
Language : Russian
Default : Yes
Forced : No
Audio #2
ID : 3
Format : AC-3
Format/Info : Audio Coding 3
Mode extension : CM (complete main)
Format settings, Endianness : Big
Codec ID : A_AC3
Duration : 1h 42mn
Bit rate mode : Constant
Bit rate : 640 Kbps
Channel(s) : 6 channels
Channel positions : Front: L C R, Side: L R, LFE
Sampling rate : 48.0 KHz
Bit depth : 16 bits
Compression mode : Lossy
Stream size : 468 MiB (9%)
Title : AVO [U. Serbin]
Language : Russian
Default : No
Forced : No
Audio #3
ID : 4
Format : AC-3
Format/Info : Audio Coding 3
Mode extension : CM (complete main)
Format settings, Endianness : Big
Codec ID : A_AC3
Duration : 1h 42mn
Bit rate mode : Constant
Bit rate : 640 Kbps
Channel(s) : 6 channels
Channel positions : Front: L C R, Side: L R, LFE
Sampling rate : 48.0 KHz
Bit depth : 16 bits
Compression mode : Lossy
Stream size : 468 MiB (9%)
Title : AVO [U. Jivov]
Language : Russian
Default : No
Forced : No
Audio #4
ID : 5
Format : AC-3
Format/Info : Audio Coding 3
Mode extension : CM (complete main)
Format settings, Endianness : Big
Codec ID : A_AC3
Duration : 1h 42mn
Bit rate mode : Constant
Bit rate : 384 Kbps
Channel(s) : 6 channels
Channel positions : Front: L C R, Side: L R, LFE
Sampling rate : 48.0 KHz
Bit depth : 16 bits
Compression mode : Lossy
Stream size : 281 MiB (5%)
Title : Dub [iTunes]
Language : Ukrainian
Default : No
Forced : No
Audio #5
ID : 6
Format : AC-3
Format/Info : Audio Coding 3
Mode extension : CM (complete main)
Format settings, Endianness : Big
Codec ID : A_AC3
Duration : 1h 42mn
Bit rate mode : Constant
Bit rate : 640 Kbps
Channel(s) : 6 channels
Channel positions : Front: L C R, Side: L R, LFE
Sampling rate : 48.0 KHz
Bit depth : 16 bits
Compression mode : Lossy
Stream size : 468 MiB (9%)
Title : Original
Language : English
Default : No
Forced : No
Text #1
ID : 7
Format : UTF-8
Codec ID : S_TEXT/UTF8
Codec ID/Info : UTF-8 Plain Text
Title : Forced
Language : Russian
Default : Yes
Forced : No
Text #2
ID : 8
Format : UTF-8
Codec ID : S_TEXT/UTF8
Codec ID/Info : UTF-8 Plain Text
Title : Full [iTunes]
Language : Russian
Default : No
Forced : No
Text #3
ID : 9
Format : UTF-8
Codec ID : S_TEXT/UTF8
Codec ID/Info : UTF-8 Plain Text
Title : Full [Notabenoid]
Language : Russian
Default : No
Forced : No
Text #4
ID : 10
Format : UTF-8
Codec ID : S_TEXT/UTF8
Codec ID/Info : UTF-8 Plain Text
Title : Forced
Language : Ukrainian
Default : No
Forced : No
Text #5
ID : 11
Format : UTF-8
Codec ID : S_TEXT/UTF8
Codec ID/Info : UTF-8 Plain Text
Title : Full
Language : English
Default : No
Forced : No
Text #6
ID : 12
Format : UTF-8
Codec ID : S_TEXT/UTF8
Codec ID/Info : UTF-8 Plain Text
Title : SDH
Language : English
Default : No
Forced : No
Text #7
ID : 13
Format : UTF-8
Codec ID : S_TEXT/UTF8
Codec ID/Info : UTF-8 Plain Text
Title : SDH-Colored
Language : English
Default : No
Forced : No
Menu
00:00:00.000 : ru:1. Несчастный случай
00:05:59.818 : ru:2. Скрывая свои силы
00:11:37.947 : ru:3. День коронации
00:19:53.734 : ru:4. Влюблённость
00:31:03.195 : ru:5. Поиски Эльзы
00:38:39.484 : ru:6. Попутчик
00:44:21.284 : ru:7. Олаф
00:50:51.507 : ru:8. Эльза найдена
00:57:48.381 : ru:9. Снежный монстр
01:02:57.399 : ru:10. Семья
01:09:36.047 : ru:11. Возвращение
01:13:34.869 : ru:12. Предательство
01:18:07.599 : ru:13. Что такое любовь?
01:22:33.740 : ru:14. Знак истинной любви
01:27:10.809 : ru:15. Открытые ворота
01:32:33.506 : ru:16. Финальные титры

Скриншоты| Rip vs Source

Rip vs Source
Rip

Source

_________________
Показать сообщения:    

Текущее время: Сегодня 09:28

Часовой пояс: GMT



Вы не можете начинать темы
Вы не можете отвечать на сообщения
Вы не можете редактировать свои сообщения
Вы не можете удалять свои сообщения
Вы не можете голосовать в опросах
Вы не можете прикреплять файлы к сообщениям
Вы не можете скачивать файлы
Наши партнеры: интернет магазин Ивановского трикотажа textilla.ru