Важное объявление!
У Нас Все раздачи мультитрекерные, при нуле пиров в релизах, можете смело вставать на закачку!
 
Автор Сообщение

HUNTER

Стаж:
4 года 8 месяцев
Сообщений:
61987

Репутация: 101

[+] [-]
Вне форума [Профиль] [ЛС]

Холодное сердце / Frozen
Страна: США
Производство: Walt Disney Animation Studios, Walt Disney Pictures
Жанр: мультфильм, мюзикл, фэнтези, комедия, мелодрама, приключения, семейный
Продолжительность: 01:42:13
Год выпуска: 2013
Перевод 1: Профессиональный (дублированный) Русский
Перевод 2: Авторский (одноголосый закадровый) Ю.Живов
Перевод 3: Авторский (одноголосый закадровый) Ю.Сербин
Русские субтитры: есть--Режиссёр: Крис Бак / Chris Buck, Дженнифер Ли / Jennifer Lee--Роли озвучивали: Кристен Белл, Идина Мензел, Джонатан Грофф, Джош Гад, Сантино Фонтана, Алан Тьюдик, Киаран Хайндс, Крис Уильямс, Стивен Дж. Андерсон, Майа Уилсон...--Роли дублировали: Наталия Быстрова (Anna), Анна Бутурлина (Elsa), Андрей Бирин (Kristoff), Сергей Пенкин (Olaf), Дима Билан (Hans), Владимир Рыбальченко (Pabbie), Сергей Чихачев (Kai), Анастасия Лапина (Bulda).--Описание: Когда древнее предсказание сбывается и королевство погружается в объятия вечной зимы, трое бесстрашных героев - принцесса Анна, отважный Кристофф и его верный олень Свен - отправляются в горы, чтобы найти сестру Анны, Эльзу, которая может снять со страны леденящее заклятие. По пути их ждет множество увлекательных сюрпризов и захватывающих приключений: встреча с мистическими троллями, знакомство с очаровательным снеговиком по имени Олаф, горные вершины покруче Эвереста и магия в каждой снежинке. Анне и Кристоффу предстоит сплотиться и противостоять могучей стихии, чтобы спасти королевство и тех, кто им дорог...--Доп. информация: Kinopoisk | IMDB | Sample | --Качество: BDRip-AVC
Формат: MKV
Видео: MPEG4/ISO/AVC, 1108x494, 2 503 Kbps, 23.976 fps, 0.189 bit/pixel.
Аудио 1: 48 kHz, AC3, 3/2 (L,C,R,l,r) + LFE ch, ~448 kbps avg |Дубляж, Blu-ray CEE|
Аудио 2: 48 kHz, AC3, 3/2 (L,C,R,l,r) + LFE ch, ~448 kbps avg |Одноголосый закадровый Ю.Живов|
Аудио 3: 48 kHz, AC3, 3/2 (L,C,R,l,r) + LFE ch, ~448 kbps avg |Одноголосый закадровый Ю.Сербин|
Аудио 4: 48 kHz, AC3, 3/2 (L,C,R,l,r) + LFE ch, ~448 kbps avg |Original|
Субтитры: Русские (iTunes), English (Full), English (SDH), English (SDH-COLORED)

Скриншоты

Подробные технические данные

x264
raw [info]: 1108x494p 1:1 @ 24000/1001 fps (cfr)
x264 [info]: using SAR=1/1
x264 [info]: using cpu capabilities: MMX2 SSE2Fast SSSE3 SSE4.2 AVX
x264 [info]: profile High, level 4.1
x264 [info]: cabac=1 ref=10 deblock=1:-2:-1 analyse=0x3:0x133 me=umh subme=10 psy=1 fade_compensate=0.00 psy_rd=1.05:0.03 mixed_ref=1 me_range=32 chroma_me=1 trellis=2 8x8dct=1 cqm=0 deadzone=21,11 fast_pskip=0 chroma_qp_offset=-3 threads=6 lookahead_threads=1 sliced_threads=0 nr=0 decimate=1 interlaced=0 bluray_compat=0 constrained_intra=0 fgo=0 bframes=14 b_pyramid=2 b_adapt=2 b_bias=0 direct=1 weightb=1 open_gop=0 weightp=2 keyint=250 keyint_min=23 scenecut=40 intra_refresh=0 rc_lookahead=60 rc=crf mbtree=0 crf=16.4000 qcomp=0.60 qpmin=0 qpmax=69 qpstep=4 vbv_maxrate=50000 vbv_bufsize=62500 crf_max=0.0 nal_hrd=none filler=0 ip_ratio=1.40 pb_ratio=1.30 aq=2:0.90 zones=133127,146240,q=30
x264 [info]: frame I:1199 Avg QP:14.42 size: 87098
x264 [info]: frame P:37379 Avg QP:17.34 size: 24122
x264 [info]: frame B:108466 Avg QP:19.67 size: 8766
x264 [info]: consecutive B-frames: 2.0% 2.6% 25.4% 30.0% 15.1% 21.3% 1.2% 0.4% 0.5% 0.2% 0.2% 0.1% 0.1% 0.4% 0.4%
x264 [info]: mb I I16..4: 5.7% 66.1% 28.2%
x264 [info]: mb P I16..4: 0.8% 9.3% 2.3% P16..4: 29.2% 16.8% 15.2% 1.3% 0.6% skip:24.5%
x264 [info]: mb B I16..4: 0.1% 1.3% 0.4% B16..8: 28.1% 10.4% 3.8% direct: 4.3% skip:51.6% L0:38.0% L1:45.0% BI:16.9%
x264 [info]: 8x8 transform intra:72.6% inter:51.5%
x264 [info]: coded y,uvDC,uvAC intra: 85.9% 82.1% 68.3% inter: 16.9% 16.3% 8.1%
x264 [info]: i16 v,h,dc,p: 18% 18% 9% 55%
x264 [info]: i8 v,h,dc,ddl,ddr,vr,hd,vl,hu: 10% 14% 8% 8% 11% 10% 13% 10% 15%
x264 [info]: i4 v,h,dc,ddl,ddr,vr,hd,vl,hu: 9% 13% 5% 9% 14% 13% 13% 10% 13%
x264 [info]: i8c dc,h,v,p: 43% 26% 17% 14%
x264 [info]: Weighted P-Frames: Y:4.4% UV:2.3%
x264 [info]: ref P L0: 54.5% 9.1% 15.4% 6.2% 3.9% 3.5% 2.6% 1.7% 1.3% 1.5% 0.4% 0.0%
x264 [info]: ref B L0: 77.2% 10.2% 5.2% 2.4% 1.7% 1.2% 1.2% 0.5% 0.3%
x264 [info]: ref B L1: 92.1% 7.9%
x264 [info]: kb/s:2552.63
x264 [total]: encoded 147044 frames, 2.26 fps, 2552.63 kb/s.
General
Unique ID : 214870382328975224425639386445174753179 (0xA1A687C4F290FABAB3F715F232DB479B)
Complete name : Холодное сердце.2013.mkv
Format : Matroska
Format version : Version 4 / Version 2
File size : 3.10 GiB
Duration : 1h 42mn
Overall bit rate : 4 348 Kbps
Movie name : Холодное сердце / Frozen (2013)
Encoded date : UTC 2015-05-09 20:39:23
Writing application : mkvmerge v7.8.0 ('River Man') 64bit built on Mar 27 2015 16:31:37
Writing library : libebml v1.3.1 + libmatroska v1.4.2
Attachements : cover.jpg
DURATION : 01:42:13.056000000
NUMBER_OF_FRAMES : 191658
NUMBER_OF_BYTES : 343451136
_STATISTICS_WRITING_APP : mkvmerge v7.8.0 ('River Man') 64bit built on Mar 27 2015 16:31:37
_STATISTICS_WRITING_DATE_UT : 2015-05-09 20:39:23
_STATISTICS_TAGS : BPS DURATION NUMBER_OF_FRAMES NUMBER_OF_BYTES
Video
ID : 1
Format : AVC
Format/Info : Advanced Video Codec
Format profile : High@L4.1
Format settings, CABAC : Yes
Format settings, ReFrames : 10 frames
Codec ID : V_MPEG4/ISO/AVC
Duration : 1h 42mn
Bit rate : 2 469 Kbps
Width : 1 108 pixels
Height : 494 pixels
Display aspect ratio : 2.25:1
Frame rate mode : Constant
Frame rate : 23.976 fps
Color space : YUV
Chroma subsampling : 4:2:0
Bit depth : 8 bits
Scan type : Progressive
Bits/(Pixel*Frame) : 0.188
Stream size : 1.76 GiB (57%)
Title : By optik.1557
Writing library : x264 core 146 r2538kMod 121396c
Encoding settings : cabac=1 / ref=10 / deblock=1:-2:-1 / analyse=0x3:0x133 / me=umh / subme=10 / psy=1 / fade_compensate=0.00 / psy_rd=1.05:0.03 / mixed_ref=1 / me_range=32 / chroma_me=1 / trellis=2 / 8x8dct=1 / cqm=0 / deadzone=21,11 / fast_pskip=0 / chroma_qp_offset=-3 / threads=6 / lookahead_threads=1 / sliced_threads=0 / nr=0 / decimate=1 / interlaced=0 / bluray_compat=0 / constrained_intra=0 / fgo=0 / bframes=14 / b_pyramid=2 / b_adapt=2 / b_bias=0 / direct=1 / weightb=1 / open_gop=0 / weightp=2 / keyint=250 / keyint_min=23 / scenecut=40 / intra_refresh=0 / rc_lookahead=60 / rc=crf / mbtree=0 / crf=16.4000 / qcomp=0.60 / qpmin=0 / qpmax=69 / qpstep=4 / vbv_maxrate=50000 / vbv_bufsize=62500 / crf_max=0.0 / nal_hrd=none / filler=0 / ip_ratio=1.40 / pb_ratio=1.30 / aq=2:0.90 / zones=133127,146240,q=30
Language : English
Default : Yes
Forced : No
DURATION : 01:42:12.960000000
NUMBER_OF_FRAMES : 147044
NUMBER_OF_BYTES : 1956895921
_STATISTICS_WRITING_APP : mkvmerge v7.8.0 ('River Man') 64bit built on Mar 27 2015 16:31:37
_STATISTICS_WRITING_DATE_UT : 2015-05-09 20:39:23
_STATISTICS_TAGS : BPS DURATION NUMBER_OF_FRAMES NUMBER_OF_BYTES
Audio #1
ID : 2
Format : AC-3
Format/Info : Audio Coding 3
Mode extension : CM (complete main)
Format settings, Endianness : Big
Codec ID : A_AC3
Duration : 1h 42mn
Bit rate mode : Constant
Bit rate : 448 Kbps
Channel(s) : 6 channels
Channel positions : Front: L C R, Side: L R, LFE
Sampling rate : 48.0 KHz
Bit depth : 16 bits
Compression mode : Lossy
Stream size : 328 MiB (10%)
Title : Дубляж. Blu-ray CEE
Language : Russian
Default : Yes
Forced : No
Audio #2
ID : 3
Format : AC-3
Format/Info : Audio Coding 3
Mode extension : CM (complete main)
Format settings, Endianness : Big
Codec ID : A_AC3
Duration : 1h 42mn
Bit rate mode : Constant
Bit rate : 448 Kbps
Channel(s) : 6 channels
Channel positions : Front: L C R, Side: L R, LFE
Sampling rate : 48.0 KHz
Bit depth : 16 bits
Compression mode : Lossy
Stream size : 328 MiB (10%)
Title : Авторский (одноголосый закадровый) Ю.Живов
Language : Russian
Default : No
Forced : No
Audio #3
ID : 4
Format : AC-3
Format/Info : Audio Coding 3
Mode extension : CM (complete main)
Format settings, Endianness : Big
Codec ID : A_AC3
Duration : 1h 42mn
Bit rate mode : Constant
Bit rate : 448 Kbps
Channel(s) : 6 channels
Channel positions : Front: L C R, Side: L R, LFE
Sampling rate : 48.0 KHz
Bit depth : 16 bits
Compression mode : Lossy
Stream size : 328 MiB (10%)
Title : Авторский (одноголосый закадровый) Ю.Сербин
Language : Russian
Default : No
Forced : No
Audio #4
ID : 5
Format : AC-3
Format/Info : Audio Coding 3
Mode extension : CM (complete main)
Format settings, Endianness : Big
Codec ID : A_AC3
Duration : 1h 42mn
Bit rate mode : Constant
Bit rate : 448 Kbps
Channel(s) : 6 channels
Channel positions : Front: L C R, Side: L R, LFE
Sampling rate : 48.0 KHz
Bit depth : 16 bits
Compression mode : Lossy
Stream size : 328 MiB (10%)
Title : Original
Language : English
Default : No
Forced : No
Text #1
ID : 6
Format : UTF-8
Codec ID : S_TEXT/UTF8
Codec ID/Info : UTF-8 Plain Text
Title : iTunes
Language : Russian
Default : No
Forced : No
Text #2
ID : 7
Format : UTF-8
Codec ID : S_TEXT/UTF8
Codec ID/Info : UTF-8 Plain Text
Language : English
Default : No
Forced : No
Text #3
ID : 8
Format : UTF-8
Codec ID : S_TEXT/UTF8
Codec ID/Info : UTF-8 Plain Text
Title : SDH
Language : English
Default : No
Forced : No
Text #4
ID : 9
Format : UTF-8
Codec ID : S_TEXT/UTF8
Codec ID/Info : UTF-8 Plain Text
Title : SDH-COLORED
Language : English
Default : No
Forced : No
Menu
00:00:00.000 : ru:1. Несчастный случай
00:05:59.818 : ru:2. Скрывая свои силы
00:11:37.947 : ru:3. День коронации
00:19:53.734 : ru:4. Влюблённость
00:31:03.195 : ru:5. Поиски Эльзы
00:38:39.484 : ru:6. Попутчик
00:44:21.284 : ru:7. Олаф
00:50:51.507 : ru:8. Эльза найдена
00:57:48.381 : ru:9. Снежный монстр
01:02:57.399 : ru:10. Семья
01:09:36.047 : ru:11. Возвращение
01:13:34.869 : ru:12. Предательство
01:18:07.599 : ru:13. Что такое любовь?
01:22:33.740 : ru:14. Знак истинной любви
01:27:10.809 : ru:15. Открытые ворота
01:32:33.506 : ru:16. Финальные титры

Слова благодарности:

БОЛЬШОЕ СПАСИБО:
- За перевод Ю. Живова спасибо: пользователям
e180 - ultrajeka, Savely, Daniel Rock, dark1982, Chistobaev, Евгений_1, carnivale, semargl, saigons, пуля, Foots, I_Am_Hell, Марлон, oleg-k, tide, Герман 23, masta;
widescreen - phaeton77, v1111o, ilgizik01, Multmir, Nick, vik19662007, furria62, DFCbit;
hdtracker - KpucTo161, _MyxAmoP_, Диммон, -Джосс-, Xerman13, Denis2251, SavineX, olegsoleg, Role, Luka69, Slimka, Anymouse, hulahup, Gangster.
- За перевод Ю. Сербина спасибо: пользователям
e180 - ultrajeka, denis_mgn_1987, phaeton77, MyxAmoP, Slimka, Ken, luka69, ANISKIN50, markinscor, Xerman13, пуля, muha, ilbilb;
widescreen - v1111o, DFCbit, jekyll_89;
hdtracker - Role, hulahup, rebz9i.

_________________
Показать сообщения:    

Текущее время: Сегодня 16:44

Часовой пояс: GMT



Вы не можете начинать темы
Вы не можете отвечать на сообщения
Вы не можете редактировать свои сообщения
Вы не можете удалять свои сообщения
Вы не можете голосовать в опросах
Вы не можете прикреплять файлы к сообщениям
Вы не можете скачивать файлы
Наши партнеры: интернет магазин Ивановского трикотажа textilla.ru