Ивановский Торрент трекер
Яндекс.Погода
 

[Цитировать]
HUNTER

Холодное сердце / Frozen
Страна: США
Производство: Walt Disney Animation Studios, Walt Disney Pictures
Жанр: мультфильм, мюзикл, фэнтези
Продолжительность: 01:42:13
Год выпуска: 2013
Перевод 1: Профессиональный (дублированный) Русский
Перевод 2: Профессиональный (дублированный) Украинский
Перевод 3: Авторский (одноголосый закадровый) Ю.Живов
Перевод 4: Авторский (одноголосый закадровый) Ю.Сербин
Русские субтитры: есть--Режиссёр: Крис Бак / Chris Buck, Дженнифер Ли / Jennifer Lee--Роли озвучивали: Кристен Белл, Идина Мензел, Джонатан Грофф, Джош Гад, Сантино Фонтана, Алан Тьюдик, Киаран Хайндс, Крис Уильямс, Стивен Дж. Андерсон, Майа Уилсон...--Роли дублировали: Наталия Быстрова (Anna), Анна Бутурлина (Elsa), Андрей Бирин (Kristoff), Сергей Пенкин (Olaf), Дима Билан (Hans), Владимир Рыбальченко (Pabbie), Сергей Чихачев (Kai), Анастасия Лапина (Bulda).--Описание: Когда древнее предсказание сбывается и королевство погружается в объятия вечной зимы, трое бесстрашных героев - принцесса Анна, отважный Кристофф и его верный олень Свен - отправляются в горы, чтобы найти сестру Анны, Эльзу, которая может снять со страны леденящее заклятие. По пути их ждет множество увлекательных сюрпризов и захватывающих приключений: встреча с мистическими троллями, знакомство с очаровательным снеговиком по имени Олаф, горные вершины покруче Эвереста и магия в каждой снежинке. Анне и Кристоффу предстоит сплотиться и противостоять могучей стихии, чтобы спасти королевство и тех, кто им дорог...--Доп. информация: Kinopoisk | IMDB | Sample | --Качество: Blu-Ray Remux 1080p
Формат: MKV
Видео: MPEG4/AVC, 1920x1080, 26 697 Kbps, 23.976 fps.
Аудио 1: 48 kHz, AC3, 3/2 (L,C,R,l,r) + LFE ch, ~640.00 kbps avg |Дубляж, Blu-ray CEE|
Аудио 2: 48 kHz, AC3, 3/2 (L,C,R,l,r) + LFE ch, ~384.00 kbps avg |Дубляж, iTunes|
Аудио 3: DTS-HD Master Audio, 7.1, 48 kHz, 4943 kbps, 24-bit (DTS, 5.1, 48 kHz, 1509 kbps, 24-bit) |Одноголосый закадровый Ю.Живов|
Аудио 4: DTS-HD Master Audio, 7.1, 48 kHz, 4918 kbps, 24-bit (DTS, 5.1, 48 kHz, 1509 kbps, 24-bit) |Одноголосый закадровый Ю.Сербин|
Аудио 5: DTS-HD Master Audio, 7.1, 48 kHz, 4906 kbps, 24-bit (DTS, 5.1, 48 kHz, 1509 kbps, 24-bit) |Original|
Аудио 6: 48 kHz, AC3, 2/0 (L,R) ch, ~320.00 kbps avg |Descriрtive|
Субтитры: Русские (iTunes), English, English (SDH), English (SDH-COLORED)

Скриншоты

Подробные технические данные

General
Unique ID : 234811153097728434958873510522162355748 (0xB0A6FBAC9E5DC4C79897FC14F0859E24)
Complete name : Frozen (2013) BDRemux.mkv
Format : Matroska
Format version : Version 4 / Version 2
File size : 30.3 GiB
Duration : 1h 42mn
Overall bit rate mode : Variable
Overall bit rate : 42.5 Mbps
Movie name : Холодное сердце / Frozen (2013)
Encoded date : UTC 2015-05-07 19:54:42
Writing application : mkvmerge v7.8.0 ('River Man') 64bit built on Mar 27 2015 16:31:37
Writing library : libebml v1.3.1 + libmatroska v1.4.2
DURATION : 01:41:51.526000000
NUMBER_OF_FRAMES : 1990
NUMBER_OF_BYTES : 70941
_STATISTICS_WRITING_APP : mkvmerge v7.8.0 ('River Man') 64bit built on Mar 27 2015 16:31:37
_STATISTICS_WRITING_DATE_UT : 2015-05-07 19:54:42
_STATISTICS_TAGS : BPS DURATION NUMBER_OF_FRAMES NUMBER_OF_BYTES
Video
ID : 1
Format : AVC
Format/Info : Advanced Video Codec
Format profile : High@L4.1
Format settings, CABAC : Yes
Format settings, ReFrames : 4 frames
Format settings, GOP : M=3, N=12
Codec ID : V_MPEG4/ISO/AVC
Duration : 1h 42mn
Bit rate mode : Variable
Maximum bit rate : 28.0 Mbps
Width : 1 920 pixels
Height : 1 080 pixels
Display aspect ratio : 16:9
Frame rate mode : Constant
Frame rate : 23.976 fps
Color space : YUV
Chroma subsampling : 4:2:0
Bit depth : 8 bits
Scan type : Progressive
Title : NTSC, 1920x1080 (1.778:1), Untached ~26697 kbps avg, BDRemux 1080p
Language : Russian
Default : Yes
Forced : No
Audio #1
ID : 2
Format : AC-3
Format/Info : Audio Coding 3
Mode extension : CM (complete main)
Format settings, Endianness : Big
Codec ID : A_AC3
Duration : 1h 42mn
Bit rate mode : Constant
Bit rate : 640 Kbps
Channel(s) : 6 channels
Channel positions : Front: L C R, Side: L R, LFE
Sampling rate : 48.0 KHz
Bit depth : 16 bits
Compression mode : Lossy
Stream size : 468 MiB (2%)
Title : AC3, 6 ch, 48 kHz, 640 kbps - Полное дублирование
Language : Russian
Default : Yes
Forced : No
Audio #2
ID : 3
Format : AC-3
Format/Info : Audio Coding 3
Mode extension : CM (complete main)
Format settings, Endianness : Big
Codec ID : A_AC3
Duration : 1h 42mn
Bit rate mode : Constant
Bit rate : 384 Kbps
Channel(s) : 6 channels
Channel positions : Front: L C R, Side: L R, LFE
Sampling rate : 48.0 KHz
Bit depth : 16 bits
Compression mode : Lossy
Stream size : 281 MiB (1%)
Title : AC3, 6 ch, 48 kHz, 384 kbps
Language : Ukrainian
Default : No
Forced : No
Audio #3
ID : 4
Format : DTS
Format/Info : Digital Theater Systems
Format profile : MA / Core
Mode : 16
Format settings, Endianness : Big
Codec ID : A_DTS
Duration : 1h 42mn
Bit rate mode : Variable
Bit rate : Unknown / 1 509 Kbps
Channel(s) : 8 channels / 6 channels
Channel positions : Front: L C R, Side: L R, Back: L R, LFE / Front: L C R, Side: L R, LFE
Sampling rate : 48.0 KHz
Bit depth : 24 bits
Compression mode : Lossless / Lossy
Title : DTS-HD MA / 7.1 / 48 kHz / 4943 kbps / 24-bit - AVO | Юрий Живов
Language : Russian
Default : No
Forced : No
Audio #4
ID : 5
Format : DTS
Format/Info : Digital Theater Systems
Format profile : MA / Core
Mode : 16
Format settings, Endianness : Big
Codec ID : A_DTS
Duration : 1h 42mn
Bit rate mode : Variable
Bit rate : Unknown / 1 509 Kbps
Channel(s) : 8 channels / 6 channels
Channel positions : Front: L C R, Side: L R, Back: L R, LFE / Front: L C R, Side: L R, LFE
Sampling rate : 48.0 KHz
Bit depth : 24 bits
Compression mode : Lossless / Lossy
Title : DTS-HD MA / 7.1 / 48 kHz / 4918 kbps / 24-bit - AVO | Юрий Сербин
Language : Russian
Default : No
Forced : No
Audio #5
ID : 6
Format : DTS
Format/Info : Digital Theater Systems
Format profile : MA / Core
Mode : 16
Format settings, Endianness : Big
Codec ID : A_DTS
Duration : 1h 42mn
Bit rate mode : Variable
Bit rate : Unknown / 1 509 Kbps
Channel(s) : 8 channels / 6 channels
Channel positions : Front: L C R, Side: L R, Back: L R, LFE / Front: L C R, Side: L R, LFE
Sampling rate : 48.0 KHz
Bit depth : 24 bits
Compression mode : Lossless / Lossy
Title : DTS-HD MA / 7.1 / 48 kHz / 4906 kbps / 24-bit - Original
Language : English
Default : No
Forced : No
Audio #6
ID : 7
Format : AC-3
Format/Info : Audio Coding 3
Format profile : Dolby Digital
Mode extension : CM (complete main)
Format settings, Endianness : Big
Codec ID : A_AC3
Duration : 1h 42mn
Bit rate mode : Constant
Bit rate : 320 Kbps
Channel(s) : 2 channels
Channel positions : Front: L R
Sampling rate : 48.0 KHz
Bit depth : 16 bits
Compression mode : Lossy
Stream size : 234 MiB (1%)
Title : AC3, Surround, 2 ch, 48 kHz, 320 kbps - Descriptive
Language : English
Default : No
Forced : No
Text #1
ID : 8
Format : UTF-8
Codec ID : S_TEXT/UTF8
Codec ID/Info : UTF-8 Plain Text
Title : Полные
Language : Russian
Default : No
Forced : No
Text #2
ID : 9
Format : UTF-8
Codec ID : S_TEXT/UTF8
Codec ID/Info : UTF-8 Plain Text
Title : Full
Language : English
Default : No
Forced : No
Text #3
ID : 10
Format : UTF-8
Codec ID : S_TEXT/UTF8
Codec ID/Info : UTF-8 Plain Text
Title : SDH
Language : English
Default : No
Forced : No
Text #4
ID : 11
Format : UTF-8
Codec ID : S_TEXT/UTF8
Codec ID/Info : UTF-8 Plain Text
Title : SDH-COLORED
Language : English
Default : No
Forced : No
Menu
00:00:00.000 : ru:1. Несчастный случай
00:05:59.818 : ru:2. Скрывая свои силы
00:11:37.947 : ru:3. День коронации
00:19:53.734 : ru:4. Влюблённость
00:31:03.195 : ru:5. Поиски Эльзы
00:38:39.484 : ru:6. Попутчик
00:44:21.284 : ru:7. Олаф
00:50:51.507 : ru:8. Эльза найдена
00:57:48.381 : ru:9. Снежный монстр
01:02:57.399 : ru:10. Семья
01:09:36.047 : ru:11. Возвращение
01:13:34.869 : ru:12. Предательство
01:18:07.599 : ru:13. Что такое любовь?
01:22:33.740 : ru:14. Знак истинной любви
01:27:10.809 : ru:15. Открытые ворота
01:32:33.506 : ru:16. Финальные титры

Слова благодарности:

БОЛЬШОЕ СПАСИБО:
- За перевод Ю. Живова спасибо: пользователям
e180 - ultrajeka, Savely, Daniel Rock, dark1982, Chistobaev, Евгений_1, carnivale, semargl, saigons, пуля, Foots, I_Am_Hell, Марлон, oleg-k, tide, Герман 23, masta;
widescreen - phaeton77, v1111o, ilgizik01, Multmir, Nick, vik19662007, furria62, DFCbit;
hdtracker - KpucTo161, _MyxAmoP_, Диммон, -Джосс-, Xerman13, Denis2251, SavineX, olegsoleg, Role, Luka69, Slimka, Anymouse, hulahup, Gangster.
- За перевод Ю. Сербина спасибо: пользователям
e180 - ultrajeka, denis_mgn_1987, phaeton77, MyxAmoP, Slimka, Ken, luka69, ANISKIN50, markinscor, Xerman13, пуля, muha, ilbilb;
widescreen - v1111o, DFCbit, jekyll_89;
hdtracker - Role, hulahup, rebz9i.


Показать сообщения:    

Текущее время: 13-Дек 22:52

Часовой пояс: UTC ± 0


Вы не можете начинать темы
Вы не можете отвечать на сообщения
Вы не можете редактировать свои сообщения
Вы не можете удалять свои сообщения
Вы не можете голосовать в опросах
Вы не можете прикреплять файлы к сообщениям
Вы не можете скачивать файлы

!ВНИМАНИЕ!
Сайт не предоставляет электронные версии произведений, а занимается лишь коллекционированием и каталогизацией ссылок, присылаемых и публикуемых на форуме нашими читателями. Если вы являетесь правообладателем какого-либо представленного материала и не желаете, чтобы ссылка на него находилась в нашем каталоге, свяжитесь с нами, и мы незамедлительно удалим ее. Файлы для обмена на трекере предоставлены пользователями сайта, и администрация не несет ответственности за их содержание. Просьба не заливать файлы, защищенные авторскими правами, а также файлы нелегального содержания!