Хоккей. Чемпионат мира 2014. 1/2 финала. Россия - Швеция (2014) HDTVRip-AVC :: Ивановский Торрент трекер
Важное объявление!
У Нас Все раздачи мультитрекерные, при нуле пиров в релизах, можете смело вставать на закачку!
 
Автор Сообщение

HUNTER

Стаж:
4 года 11 месяцев
Сообщений:
66052

Репутация: 101

[+] [-]
Вне форума [Профиль] [ЛС]

Хоккей. Чемпионат мира 2014. 1/2 финала. Россия - Швеция
Информация о фильме
Название: Хоккей. Чемпионат мира 2014. 1/2 финала. Россия - Швеция
Год выхода: 2014
Жанр: Спорт
Режиссер: Россия, Спорт 1
Комментаторы: Скворцов, Гимаев
О фильме:
Хоккей. Чемпионат мира 2014. 1/2 финала. Россия - Швеция-Файл
Качество: HDTVRip-AVC
Видео: AVC, 704x400 (16:9), 25,000 кадров/сек, 1500 kbps
Аудио: AC3, 48000 Hz, 2 channels, stereo, 192 kbps
Продолжительность: 02:07:26
Перевод: Не требуется

MediaInfo

DownloadsWCH 2014. RUS-SWE.mkv
General
Unique ID : 171788911387399041439070045621218836803 (0x813D57424DCE87C98AEC5E662DEE0143)
Complete name : DownloadsWCH 2014. RUS-SWE.mkv
Format : Matroska
Format version : Version 2
File size : 1.59 GiB
Duration : 2h 7mn
Overall bit rate : 1 782 Kbps
Encoded date : UTC 2014-05-24 14:11:57
Writing application : mkvmerge v5.7.0 ('The Whirlwind') built on Jul 29 2012 15:12:35
Writing library : XviD4PSP 6.0 / 54.29.105
Video #2
ID : 2
Format : AVC
Format/Info : Advanced Video Codec
Format profile : High@L4.1
Format settings, CABAC : Yes
Format settings, ReFrames : 3 frames
Codec ID : V_MPEG4/ISO/AVC
Duration : 2h 7mn
Bit rate : 1 554 Kbps
Nominal bit rate : 1 700 Kbps
Width : 704 pixels
Height : 400 pixels
Display aspect ratio : 16:9
Frame rate mode : Constant
Frame rate : 25.000 fps
Color space : YUV
Chroma subsampling : 4:2:0
Bit depth : 8 bits
Scan type : Progressive
Bits/(Pixel*Frame) : 0.221
Stream size : 1.38 GiB (87%)
Writing library : x264 core 128 r2216M 198a7ea
Encoding settings : cabac=1 / ref=3 / deblock=1:0:0 / analyse=0x3:0x133 / me=hex / subme=7 / psy=1 / psy_rd=1.00:0.20 / mixed_ref=1 / me_range=16 / chroma_me=1 / trellis=1 / 8x8dct=1 / cqm=0 / deadzone=21,11 / fast_pskip=1 / chroma_qp_offset=-3 / threads=8 / lookahead_threads=1 / sliced_threads=0 / nr=0 / decimate=1 / interlaced=0 / bluray_compat=0 / constrained_intra=0 / bframes=3 / b_pyramid=1 / b_adapt=2 / b_bias=0 / direct=3 / weightb=1 / open_gop=0 / weightp=2 / keyint=250 / keyint_min=25 / scenecut=40 / intra_refresh=0 / rc_lookahead=40 / rc=cbr / mbtree=1 / bitrate=1700 / ratetol=1.0 / qcomp=0.60 / qpmin=10 / qpmax=51 / qpstep=4 / vbv_maxrate=1700 / vbv_bufsize=1700 / nal_hrd=none / ip_ratio=1.40 / aq=1:1.00
Language : English
Default : Yes
Forced : No
HANDLER_NAME : AVerMedia Video Media Handler
Audio #1
ID : 1
Format : AC-3
Format/Info : Audio Coding 3
Mode extension : CM (complete main)
Format settings, Endianness : Big
Codec ID : A_AC3
Duration : 2h 7mn
Bit rate mode : Constant
Bit rate : 192 Kbps
Channel(s) : 2 channels
Channel positions : Front: L R
Sampling rate : 48.0 KHz
Bit depth : 16 bits
Compression mode : Lossy
Delay relative to video : 27ms
Stream size : 175 MiB (11%)
Language : English
Default : Yes
Forced : No
HANDLER_NAME : AVerMedia Audio Media Handler

Скриншоты



-Источник: http://x-torrents.org/torrent/642925/khokkejj.-chem...2014.-12-finala.

_________________
Показать сообщения:    

Текущее время: Сегодня 08:55

Часовой пояс: GMT



Вы не можете начинать темы
Вы не можете отвечать на сообщения
Вы не можете редактировать свои сообщения
Вы не можете удалять свои сообщения
Вы не можете голосовать в опросах
Вы не можете прикреплять файлы к сообщениям
Вы не можете скачивать файлы