Важное объявление!
У Нас Все раздачи мультитрекерные, при нуле пиров в релизах, можете смело вставать на закачку!
Статистика раздачи
Размер:     |    Зарегистрирован:     |    Скачан:     |   
Нет
 
     
 
 
Автор Сообщение

mihis

[Профиль] [ЛС]

Хоккейные игры4 Серии
Год выпуска: 2012
Страна: Россия, Аватар Фильм
Жанр: Драма, спортивный, биографический
Продолжительность: 4 х ~ 00:40:00
Перевод: Не требуется
Режиссер: Ксения Кондрашина
В ролях: Сергей Газаров, Леонид Тимцуник, Сергей Ларин, Татьяна Морозова, Светлана Йозефий, Михаил Филиппов, Александр Печенин, Юлия Головина, Андрей Натоцинский
Описание: Со времени легендарной суперсерии СССР-Канада 1972 года минуло уже много лет, однако до сих пор многие события, предшествовавшие эпохальному ледовому противостоянию двух держав, оставались неизвестны широкой публике. Фильм "Хоккейные игры", основанный на реальных событиях, рассказывает о характерах и судьбах Всеволода Боброва и Анатолия Тарасова - двух великих тренеров, двух ярких личностях. Впервые в нем раскрываются неизвестные подробности их не менее знаменитого противостояния.
Качество: DVDRip
Формат: AVI
Видео: 704x400 (1.76:1), 25 fps, XviD build 50 ~1677 kbps avg, 0.24 bit/pixel
Аудио: 48 kHz, AC3 Dolby Digital, 2/0 (L,R) ch, ~192 kbps

MediaInfo

Общее
Полное имя : D:\Video\Хоккейные игры.2012.XviD.DVDRip\Хоккейные игры.Серия 1 из 4.2012.XviD.DVDRip.avi
Формат : AVI
Формат/Информация : Audio Video Interleave
Размер файла : 600 Мбайт
Продолжительность : 44 м.
Общий поток : 1880 Кбит/сек
Программа кодирования : VirtualDubMod 1.5.10.2 (build 2540/release)
Библиотека кодирования : VirtualDubMod build 2540/release
Видео
Идентификатор : 0
Формат : MPEG-4 Visual
Профиль формата : Advanced Simple@L5
Параметр BVOP формата : 4
Параметр QPel формата : Нет
Параметр GMC формата : Без точки перехода
Параметр матрицы формата : Выборочная
Идентификатор кодека : XVID
Идентификатор кодека/Подсказка : XviD
Продолжительность : 44 м.
Битрейт : 1678 Кбит/сек
Ширина : 704 пикселя
Высота : 400 пикселей
Соотношение сторон : 16:9
Частота кадров : 25,000 кадров/сек
Цветовое пространство : YUV
Субдискретизация насыщенности : 4:2:0
Битовая глубина : 8 бит
Тип развёртки : Прогрессивная
Метод сжатия : С потерями
Бит/(Пиксели*Кадры) : 0.238
Размер потока : 535 Мбайт (89%)
Библиотека кодирования : XviD 1.2.1 (UTC 2008-12-04)
Аудио
Идентификатор : 1
Формат : AC-3
Формат/Информация : Audio Coding 3
Расширение режима : CM (complete main)
Параметр Endianness формата : Big
Идентификатор кодека : 2000
Продолжительность : 44 м.
Вид битрейта : Постоянный
Битрейт : 192 Кбит/сек
Каналы : 2 канала
Расположение каналов : Front: L R
Частота : 48,0 КГц
Битовая глубина : 16 бит
Метод сжатия : С потерями
Размер потока : 61,3 Мбайт (10%)
Выравнивание : Разделение по промежуткам
Продолжительность промежутка : 40 мс. (1,00 видеокадр)
Время предзагрузки промежутка : 500 мс.

 
Показать сообщения:    

Текущее время: Сегодня 06:41

Часовой пояс: GMT



Вы не можете начинать темы
Вы не можете отвечать на сообщения
Вы не можете редактировать свои сообщения
Вы не можете удалять свои сообщения
Вы не можете голосовать в опросах
Вы не можете прикреплять файлы к сообщениям
Вы не можете скачивать файлы