Ивановский Торрент трекер
Яндекс.Погода
 

[Цитировать]
palych74

Хоккейные игры
Год выпуска: 2012
Производство: Аватар Фильм при участии клуба «Легенды хоккея»
Жанр: Биографический, Драма, Спорт
Продолжительность: ~50 мин. серия
Субтитры: нет
Режиссёр: Ксения Кондрашина
В ролях: Сергей Газаров, Леонид Тимцуник, Сергей Ларин, Татьяна Морозова, Светлана Йозефий, Михаил Филиппов, Александр Печенин, Юлия Головина, Андрей Натоцинский
Описание: Со времени легендарной суперсерии СССР-Канада 1972 года минуло уже много лет, однако до сих пор многие события, предшествовавшие эпохальному ледовому противостоянию двух держав, оставались неизвестны широкой публике. Фильм "Хоккейные игры", основанный на реальных событиях, рассказывает о характерах и судьбах Всеволода Боброва и Анатолия Тарасова - двух великих тренеров, двух ярких личностях. Впервые в нем раскрываются неизвестные подробности их не менее знаменитого противостояния.
Доп. информация: Реклама не обнаружена!
Автор рипа Taz


Сэмпл
Качество: SATRip
Формат: AVI
Видео кодек: DivX
Аудио кодек: MP3
Видео: 704x400 (1.76:1), 25 fps, DivX Codec 5.x or 6.x ~1500 kbps avg, 0.21 bit/pixel
Аудио: 48 kHz, MPEG Layer 3, 2 ch, ~128.00 kbps avg- -

MI

General
Complete name : C:\Users\Саня\Desktop\Хоккейные игры [mgt]\Hokkejnye.Igry.01.avi
Format : AVI
Format/Info : Audio Video Interleave
File size : 461 MiB
Duration : 39mn 18s
Overall bit rate : 1 638 Kbps
Writing library : VirtualDub build 32842/release
Video
ID : 0
Format : MPEG-4 Visual
Format settings, BVOP : Yes
Format settings, QPel : No
Format settings, GMC : No warppoints
Format settings, Matrix : Default (H.263)
Muxing mode : Packed bitstream
Codec ID : DX50
Codec ID/Hint : DivX 5
Duration : 39mn 18s
Bit rate : 1 500 Kbps
Width : 704 pixels
Height : 400 pixels
Display aspect ratio : 16:9
Frame rate : 25.000 fps
Color space : YUV
Chroma subsampling : 4:2:0
Bit depth : 8 bits
Scan type : Progressive
Bits/(Pixel*Frame) : 0.213
Stream size : 422 MiB (92%)
Writing library : DivX 6.8.5 (UTC 2009-08-20)
Audio
ID : 1
Format : MPEG Audio
Format version : Version 1
Format profile : Layer 3
Mode : Joint stereo
Mode extension : MS Stereo
Codec ID : 55
Codec ID/Hint : MP3
Duration : 39mn 18s
Bit rate mode : Constant
Bit rate : 128 Kbps
Channel(s) : 2 channels
Sampling rate : 48.0 KHz
Stream size : 36.0 MiB (8%)
Alignment : Split accross interleaves
Interleave, duration : 40 ms (1.00 video frame)
Interleave, preload duration : 500 ms


Показать сообщения:    

Текущее время: 11-Дек 04:15

Часовой пояс: UTC ± 0


Вы не можете начинать темы
Вы не можете отвечать на сообщения
Вы не можете редактировать свои сообщения
Вы не можете удалять свои сообщения
Вы не можете голосовать в опросах
Вы не можете прикреплять файлы к сообщениям
Вы не можете скачивать файлы

!ВНИМАНИЕ!
Сайт не предоставляет электронные версии произведений, а занимается лишь коллекционированием и каталогизацией ссылок, присылаемых и публикуемых на форуме нашими читателями. Если вы являетесь правообладателем какого-либо представленного материала и не желаете, чтобы ссылка на него находилась в нашем каталоге, свяжитесь с нами, и мы незамедлительно удалим ее. Файлы для обмена на трекере предоставлены пользователями сайта, и администрация не несет ответственности за их содержание. Просьба не заливать файлы, защищенные авторскими правами, а также файлы нелегального содержания!