Важное объявление!
У Нас Все раздачи мультитрекерные, при нуле пиров в релизах, можете смело вставать на закачку!
 
Автор Сообщение

HUNTER

Стаж:
4 года 10 месяцев
Сообщений:
65462

Репутация: 101

[+] [-]
Вне форума [Профиль] [ЛС]

Хокинг / Hawking
Страна: Великобритания
Жанр: Драма, Биография
Год выпуска: 2004
Продолжительность: 01:28:29
Перевод: Одноголосый закадровый (Игорь Степанов)
Cубтитры: русские (автор daetoon1), английские
Оригинальная аудиодорожка: английский
Режиссер: Филип Мартин / Philip Martin
В ролях: Бенедикт Камбербэтч, Майкл Брэндон, Том Ходжкинс, Лиза Диллон, Фиби Николлс, Адам Годли, Питер Фёрт, Том Уорд, Джон Сессионс, Роэн Сива
Описание: В 1963 году, 21 летний учёный Стивен Хокинг получает диагноз болезни моторных нейорнов. Врачи делают прогноз о том что жить ему осталось не более 2-х лет. К этому времени он уже окончил Оксфордский университет и являлся аспирантом Кембриджа, где он пытался найти ответ на вопрос что станет предметом его дальнейшей научной деятельности.
Биографический фильм об университетских годах выдающегося британского ученого астрофизика Стивена Хокинга.
Удивительная судьба удивительного человека. Фильм практически доподлинно рассказывает о самых значимых моментах начала карьеры Хокинга.
Замечательный фильм от ВВС снятый режиссером Филипом Мартином, не уступающий по своим меркам голливудским аналогам. И операторская работа и музыка и сюжет, который в прочем, не особо отличается от реальных событий, и даже интригующая концовка этого биографического фильма — заставляют смотреть его на одном дыхании.
Доп. информация: К оригинальному DVD добавлены русские субтитры daetoon1 и русская озвучка Игоря Степанова. Ничего не пережималось и не удалялось.
Сравнение с имеющимся на трекере DVDRip'ом - screenshotcomparison.com
Бонусы: отсутствуют
Меню: частично анимированное и озвученное
Сэмпл: sendfile.su
Тип релиза: DVD5 (Custom)
Контейнер: DVD-Video
Видео: MPEG-2, PAL 16:9 (720x576), 25.000 fps, 5515Kbps
Аудио 1: English AC3, DD 2.0, 48000Hz, 224Kbps
Аудио 2: Russian AC3, DD 2.0, 48000Hz, 192Kbps

Soft

Adobe Audition, delaycut - определение сдвига и обрезка русской дорожки
MaestroSBT
PgcDemux
MuxMan
DVDRemake Pro

DVDInfo

Title: Windows
Size: 3.80 Gb ( 3 980 012 KBytes ) - DVD-5
Enabled regions: 1, 2, 3, 4, 5, 6, 7, 8
VTS_01 :
Play Length: 01:28:29
Video: PAL 16:9 (720x576) VBR, Auto Pan&Scan
Audio:
English (Dolby AC3, 2 ch)
Russian (Dolby AC3, 2 ch)
Subtitles:
Russian
English
VTS_02 :
Play Length:
Video: PAL 16:9 (720x576) VBR, Auto Pan&Scan
Menu Video:
PAL 16:9 (720x576) VBR
Auto Pan&Scan
Menu Subtitles:
Not specified
Menu English Language Unit :
Root Menu

MediaInfo

Общее
Полное имя : C:\Users\User!\Desktop\Hawking_2004\VIDEO_TS\VTS_01_1.VOB
Формат : MPEG-PS
Размер файла : 1024 Мбайт
Продолжительность : 23 м.
Режим общего битрейта : Переменный
Общий поток : 6118 Кбит/сек
Видео
Идентификатор : 224 (0xE0)
Формат : MPEG Video
Версия формата : Version 2
Профиль формата : Main@Main
Параметр BVOP формата : Да
Параметр матрицы формата : Выборочная
Параметр GOP формата : Variable
Format_Settings_PictureStructure : Frame
Продолжительность : 23 м.
Вид битрейта : Переменный
Битрейт : 5581 Кбит/сек
Максимальный битрейт : 7000 Кбит/сек
Ширина : 720 пикселей
Высота : 576 пикселей
Соотношение сторон : 16:9
Частота кадров : 25,000 кадров/сек
Стандарт вещания : PAL
Цветовое пространство : YUV
Субдискретизация насыщенности : 4:2:0
Битовая глубина : 8 бит
Тип развёртки : Чересстрочная
Порядок развёртки : Верхнее поле первое
Метод сжатия : С потерями
Бит/(Пиксели*Кадры) : 0.538
Временной код первого кадра : 09:59:59:00
Оригинал временного кода : Group of pictures header
Размер потока : 934 Мбайт (91%)
Gop_OpenClosed_FirstFrame : Closed
Аудио #1
Идентификатор : 189 (0xBD)-128 (0x80)
Формат : AC-3
Формат/Информация : Audio Coding 3
Расширение режима : CM (complete main)
Параметр Endianness формата : Big
Режим смешивания : DVD-Video
Продолжительность : 23 м.
Вид битрейта : Постоянный
Битрейт : 224 Кбит/сек
Каналы : 2 канала
Расположение каналов : Front: L R
Частота : 48,0 КГц
Битовая глубина : 16 бит
Метод сжатия : С потерями
Размер потока : 37,5 Мбайт (4%)
Аудио #2
Идентификатор : 189 (0xBD)-129 (0x81)
Формат : AC-3
Формат/Информация : Audio Coding 3
Расширение режима : CM (complete main)
Параметр Endianness формата : Big
Режим смешивания : DVD-Video
Продолжительность : 23 м.
Вид битрейта : Постоянный
Битрейт : 192 Кбит/сек
Каналы : 2 канала
Расположение каналов : Front: L R
Частота : 48,0 КГц
Битовая глубина : 16 бит
Метод сжатия : С потерями
Размер потока : 32,1 Мбайт (3%)
Текст #1
Идентификатор : 189 (0xBD)-32 (0x20)
Формат : RLE
Формат/Информация : Run-length encoding
Режим смешивания : DVD-Video
Задержка видео : 3 с. 240 мс.
Текст #2
Идентификатор : 189 (0xBD)-33 (0x21)
Формат : RLE
Формат/Информация : Run-length encoding
Режим смешивания : DVD-Video
Задержка видео : 16 с.
Меню

Скриншоты меню

Скриншоты


_________________
Показать сообщения:    

Текущее время: Сегодня 23:46

Часовой пояс: GMT



Вы не можете начинать темы
Вы не можете отвечать на сообщения
Вы не можете редактировать свои сообщения
Вы не можете удалять свои сообщения
Вы не можете голосовать в опросах
Вы не можете прикреплять файлы к сообщениям
Вы не можете скачивать файлы