Важное объявление!
У Нас Все раздачи мультитрекерные, при нуле пиров в релизах, можете смело вставать на закачку!
Статистика раздачи
Размер:     |    Зарегистрирован:     |    Скачан:     |   
Нет
 
     
 
 
Автор Сообщение

димитри37

Стаж:
4 года 5 месяцев
Сообщений:
1236

Репутация: 127

[+] [-]
Вне форума [Профиль] [ЛС]

Хождение по мукам. Кинотрилогия---Часть I. Сёстры
Жанр: историческая драма
Год выпуска: 1957
Продолжительность: 01:38:15
Режиссёр: Григорий Рошаль
В ролях:
Руфина Нифонтова - Катя
Нина Веселовская - Даша
Вадим Медведев - Иван Телегин
Николай Гриценко - Вадим Рощин
Виктор Шарлахов - Николай Иванович Смоковников
Владимир Муравьев - Дмитрий Степанович Булавин
Владлен Давыдов - Алексей Бессонов
Павел Винников - Тётькин
Сергей Яковлев - Василий Рублёв
Анатолий Дудоров - футурист
Михаил Козаков - Валериан Оноли
Описание:
Первый фильм кинотрилогии. Трилогия «Хождение по мукам» одно из самых значительных произведений А. Н. Толстого, в котором автор показывает жизнь нашей страны на рубеже двух эпох. Героини фильма — сестры Катя и Даша Булавины. Старшая, Катя, жена либерального адвоката Смоковникова, уже долгое время живет в тоске и отчаянии от пустоты собственной жизни. От мыслей самоубийства ее спасает офицер русской армии Вадим Рощин. Даша посещает кружок поэтов-футуристов, затем уезжает в Самару и на пароходе встречает своего давнего петербургского знакомого Ивана Телегина. Наступает восемнадцатый год…
Исходник: http://rutracker.org/forum/viewtopic.php?t=1443794
Качество видео: DVDRip-AVC
Формат видео: MKV
Видео: 688x512, AVC x264, 25 fps, 1723 Kbps
Аудио: AC3; 48 kHz; 2 ch, 384 Kbps, CBR
Сравнение с Источником
Сравнение с релизом от Animat
Сравнение рипом Slava47

Скриншоты

Исходник


MediaInfo

General
Unique ID : 212119898861844316445368768432868491658 (0x9F94CE76E79AA8DABA64BE59EFD5018A)
Complete name : K:\Сёстры.1957.mkv
Format : Matroska
Format version : Version 2
File size : 1.45 GiB
Duration : 1h 38mn
Overall bit rate : 2 109 Kbps
Encoded date : UTC 2012-02-25 15:51:42
Writing application : mkvmerge v5.3.0 ('I could have danced') built on Feb 9 2012 10:38:07
Writing library : libebml v1.2.3 + libmatroska v1.3.0
Video
ID : 1
Format : AVC
Format/Info : Advanced Video Codec
Format profile : High@L4.1
Format settings, CABAC : Yes
Format settings, ReFrames : 16 frames
Codec ID : V_MPEG4/ISO/AVC
Duration : 1h 38mn
Bit rate : 1 723 Kbps
Width : 688 pixels
Height : 512 pixels
Display aspect ratio : 4:3
Frame rate : 25.000 fps
Color space : YUV
Chroma subsampling : 4:2:0
Bit depth : 8 bits
Scan type : Progressive
Bits/(Pixel*Frame) : 0.196
Stream size : 1.15 GiB (80%)
Title : Сёстры.1957
Writing library : x264 core 119 r2106 07efeb4
Encoding settings : cabac=1 / ref=16 / deblock=1:-3:-2 / analyse=0x3:0x133 / me=umh / subme=10 / psy=1 / psy_rd=1.00:0.20 / mixed_ref=1 / me_range=48 / chroma_me=1 / trellis=2 / 8x8dct=1 / cqm=0 / deadzone=21,11 / fast_pskip=0 / chroma_qp_offset=-3 / threads=6 / sliced_threads=0 / nr=0 / decimate=0 / interlaced=0 / bluray_compat=0 / constrained_intra=0 / bframes=8 / b_pyramid=2 / b_adapt=2 / b_bias=0 / direct=3 / weightb=1 / open_gop=0 / weightp=2 / keyint=250 / keyint_min=25 / scenecut=40 / intra_refresh=0 / rc_lookahead=50 / rc=2pass / mbtree=1 / bitrate=1723 / ratetol=1.0 / qcomp=0.60 / qpmin=0 / qpmax=69 / qpstep=4 / cplxblur=20.0 / qblur=0.5 / vbv_maxrate=50000 / vbv_bufsize=62500 / nal_hrd=none / ip_ratio=1.40 / aq=1:1.00
Language : Russian
Default : Yes
Forced : No
Color primaries : BT.470-6 System B, BT.470-6 System G, BT.601-6 625, BT.1358 625, BT.1700 625 PAL, BT.1700 625 SECAM
Transfer characteristics : BT.470-6 System B, BT.470-6 System G
Matrix coefficients : BT.470-6 System B, BT.470-6 System G, BT.601-6 625, BT.1358 625, BT.1700 625 PAL, BT.1700 625 SECAM, IEC 61966-2-4 601
Audio
ID : 2
Format : AC-3
Format/Info : Audio Coding 3
Mode extension : CM (complete main)
Codec ID : A_AC3
Duration : 1h 38mn
Bit rate mode : Constant
Bit rate : 384 Kbps
Channel(s) : 2 channels
Channel positions : Front: L R
Sampling rate : 48.0 KHz
Bit depth : 16 bits
Compression mode : Lossy
Stream size : 270 MiB (18%)
Title : Оригинал AC-3; 16 bits 48 Khz; 2ch 384 Kbps CBR
Language : Russian
Default : Yes
Forced : No

FAQ по просмотру MKV/h.264/AAC

---Часть II. Восемнадцатый год
Жанр: историческая драма
Год выпуска: 1958
Продолжительность: 01:39:06
Режиссёр: Григорий Рошаль
В ролях:
Руфина Нифонтова - Катя
Нина Веселовская - Даша
Вадим Медведев - Иван Телегин
Николай Гриценко - Вадим Рощин
Майя Булгакова - Агриппина
Виктор Авдюшко - Иван Гора
Сергей Яковлев - Рублёв
Павел Винников - Тетькин
Евгений Матвеев - Иван Лукич Сорокин
Геннадий Кириллов - Беляков
Владимир Муравьёв - Булавин
Леонид Пархоменко - Красильников
Михаил Козаков - Валериан Оноли
Алексей Смирнов - Теплов
Владимир Сез - фон Мекк
Описание:
Второй фильм кинотрилогии. В России Гражданская война. Её безжалостный вихрь разметал уже сложившиеся супружеские пары Даши и Ивана, Кати и Вадима Рощина. После смерти ребёнка Даша не находит в себе сил преодолеть ощущение собственной никчемности. Телегин уезжает на фронт в Красную Армию. Катя и Рощин едут на юг, но Вадим решает вступить в Добровольческую армию и расстаётся с Катей.
Исходник: http://rutracker.org/forum/viewtopic.php?t=1445767
Качество видео: DVDRip-AVC
Формат видео: MKV
Видео: 688x504, AVC x264, 25 fps; 1718 Kbps
Аудио: AC3; 48 kHz; 2 ch 384 Kbps, CBR
Сравнение с Источником
Сравнение с релизом от Animat
Сравнение с рипом Slava47

Скриншоты

Исходник


MediaInfo

General
Unique ID : 177546951717271968099236298557140272087 (0x85924C90D08FDAFD8EB64CAFA6F483D7)
Complete name : K:\Восемнадцатый год.1958.mkv
Format : Matroska
Format version : Version 2
File size : 1.46 GiB
Duration : 1h 39mn
Overall bit rate : 2 104 Kbps
Encoded date : UTC 2012-02-26 12:22:27
Writing application : mkvmerge v5.3.0 ('I could have danced') built on Feb 9 2012 10:38:07
Writing library : libebml v1.2.3 + libmatroska v1.3.0
Video
ID : 1
Format : AVC
Format/Info : Advanced Video Codec
Format profile : High@L4.1
Format settings, CABAC : Yes
Format settings, ReFrames : 16 frames
Codec ID : V_MPEG4/ISO/AVC
Duration : 1h 39mn
Bit rate : 1 718 Kbps
Width : 688 pixels
Height : 504 pixels
Display aspect ratio : 4:3
Frame rate : 25.000 fps
Color space : YUV
Chroma subsampling : 4:2:0
Bit depth : 8 bits
Scan type : Progressive
Bits/(Pixel*Frame) : 0.198
Stream size : 1.16 GiB (80%)
Title : Восемнадцатый год.1958
Writing library : x264 core 119 r2106 07efeb4
Encoding settings : cabac=1 / ref=16 / deblock=1:-2:-2 / analyse=0x3:0x133 / me=umh / subme=10 / psy=1 / psy_rd=1.00:0.20 / mixed_ref=1 / me_range=48 / chroma_me=1 / trellis=2 / 8x8dct=1 / cqm=0 / deadzone=21,11 / fast_pskip=0 / chroma_qp_offset=-3 / threads=6 / sliced_threads=0 / nr=0 / decimate=0 / interlaced=0 / bluray_compat=0 / constrained_intra=0 / bframes=8 / b_pyramid=2 / b_adapt=2 / b_bias=0 / direct=3 / weightb=1 / open_gop=0 / weightp=2 / keyint=250 / keyint_min=25 / scenecut=40 / intra_refresh=0 / rc_lookahead=50 / rc=2pass / mbtree=1 / bitrate=1718 / ratetol=1.0 / qcomp=0.60 / qpmin=0 / qpmax=69 / qpstep=4 / cplxblur=20.0 / qblur=0.5 / vbv_maxrate=50000 / vbv_bufsize=62500 / nal_hrd=none / ip_ratio=1.40 / aq=1:1.00
Language : Russian
Default : Yes
Forced : No
Color primaries : BT.470-6 System B, BT.470-6 System G, BT.601-6 625, BT.1358 625, BT.1700 625 PAL, BT.1700 625 SECAM
Transfer characteristics : BT.470-6 System B, BT.470-6 System G
Matrix coefficients : BT.470-6 System B, BT.470-6 System G, BT.601-6 625, BT.1358 625, BT.1700 625 PAL, BT.1700 625 SECAM, IEC 61966-2-4 601
Audio
ID : 2
Format : AC-3
Format/Info : Audio Coding 3
Mode extension : CM (complete main)
Codec ID : A_AC3
Duration : 1h 39mn
Bit rate mode : Constant
Bit rate : 384 Kbps
Channel(s) : 2 channels
Channel positions : Front: L R
Sampling rate : 48.0 KHz
Bit depth : 16 bits
Compression mode : Lossy
Stream size : 272 MiB (18%)
Title : Оригинал AC-3; 16 bits 48 Khz; 2ch 384 Kbps CBR
Language : Russian
Default : Yes
Forced : No
---Часть III. Хмурое утро
Жанр: историческая драма
Год выпуска: 1959
Продолжительность: 01:39:03
Режиссёр: Григорий Рошаль
В ролях:
Руфина Нифонтова - Катя
Нина Веселовская - Даша
Вадим Медведев - Иван Телегин
Николай Гриценко - Вадим Рощин
Виктор Авдюшко - Иван Гора
Майя Булгакова - Агриппина Чебрец
Нонна Мордюкова - Матрёна
Наталья Кустинская - Маруся
Борис Андреев - матрос Чугай
Виталий Матвеев - Махно
Владимир Белокуров - Лёва Задов
Александр Титов - комиссар бригады
Описание:
Третий фильм кинотрилогии заканчивает повествование о гражданской войне в России в 1918-1920 годах. Взаимоотношения двух любящих пар, разворачивающиеся на фоне исторических событий, приходят к логической развязке.
Исходник: http://rutracker.org/forum/viewtopic.php?t=1447968
Качество видео: DVDRip-AVC
Формат видео: MKV
Видео: 688x504, AVC x264, 25 fps; 1720 Kbps
Аудио: AC3; 48 kHz; 2 ch, 384 Kbps, CBR
Сравнение с Источником
Сравнение с релизом от Animat
Сравнение с рипом Slava47

Скриншоты

Исходник


MediaInfo

General
Unique ID : 197749092313142755827296583124291600659 (0x94C516FF801EA421A6681BBD01B2C113)
Complete name : K:\Хмурое утро.1959.mkv
Format : Matroska
Format version : Version 2
File size : 1.46 GiB
Duration : 1h 39mn
Overall bit rate : 2 106 Kbps
Encoded date : UTC 2012-02-26 17:42:08
Writing application : mkvmerge v5.3.0 ('I could have danced') built on Feb 9 2012 10:38:07
Writing library : libebml v1.2.3 + libmatroska v1.3.0
Video
ID : 1
Format : AVC
Format/Info : Advanced Video Codec
Format profile : High@L4.1
Format settings, CABAC : Yes
Format settings, ReFrames : 16 frames
Codec ID : V_MPEG4/ISO/AVC
Duration : 1h 39mn
Bit rate : 1 720 Kbps
Width : 688 pixels
Height : 504 pixels
Display aspect ratio : 4:3
Frame rate : 25.000 fps
Color space : YUV
Chroma subsampling : 4:2:0
Bit depth : 8 bits
Scan type : Progressive
Bits/(Pixel*Frame) : 0.198
Stream size : 1.16 GiB (80%)
Title : Хмурое утро.1959
Writing library : x264 core 119 r2106 07efeb4
Encoding settings : cabac=1 / ref=16 / deblock=1:-2:-2 / analyse=0x3:0x133 / me=umh / subme=10 / psy=1 / psy_rd=1.00:0.20 / mixed_ref=1 / me_range=48 / chroma_me=1 / trellis=2 / 8x8dct=1 / cqm=0 / deadzone=21,11 / fast_pskip=0 / chroma_qp_offset=-3 / threads=6 / sliced_threads=0 / nr=0 / decimate=0 / interlaced=0 / bluray_compat=0 / constrained_intra=0 / bframes=8 / b_pyramid=2 / b_adapt=2 / b_bias=0 / direct=3 / weightb=1 / open_gop=0 / weightp=2 / keyint=250 / keyint_min=25 / scenecut=40 / intra_refresh=0 / rc_lookahead=50 / rc=2pass / mbtree=1 / bitrate=1720 / ratetol=1.0 / qcomp=0.60 / qpmin=0 / qpmax=69 / qpstep=4 / cplxblur=20.0 / qblur=0.5 / vbv_maxrate=50000 / vbv_bufsize=62500 / nal_hrd=none / ip_ratio=1.40 / aq=1:1.00
Language : Russian
Default : Yes
Forced : No
Color primaries : BT.470-6 System B, BT.470-6 System G, BT.601-6 625, BT.1358 625, BT.1700 625 PAL, BT.1700 625 SECAM
Transfer characteristics : BT.470-6 System B, BT.470-6 System G
Matrix coefficients : BT.470-6 System B, BT.470-6 System G, BT.601-6 625, BT.1358 625, BT.1700 625 PAL, BT.1700 625 SECAM, IEC 61966-2-4 601
Audio
ID : 2
Format : AC-3
Format/Info : Audio Coding 3
Mode extension : CM (complete main)
Codec ID : A_AC3
Duration : 1h 39mn
Bit rate mode : Constant
Bit rate : 384 Kbps
Channel(s) : 2 channels
Channel positions : Front: L R
Sampling rate : 48.0 KHz
Bit depth : 16 bits
Compression mode : Lossy
Stream size : 272 MiB (18%)
Title : Оригинал AC-3; 16 bits 48 Khz; 2ch 384 Kbps CBR
Language : Russian
Default : Yes
Forced : No
-
Показать сообщения:    

Текущее время: Сегодня 06:09

Часовой пояс: GMT



Вы не можете начинать темы
Вы не можете отвечать на сообщения
Вы не можете редактировать свои сообщения
Вы не можете удалять свои сообщения
Вы не можете голосовать в опросах
Вы не можете прикреплять файлы к сообщениям
Вы не можете скачивать файлы