Важное объявление!
У Нас Все раздачи мультитрекерные, при нуле пиров в релизах, можете смело вставать на закачку!
 
Автор Сообщение

димитри37

Стаж:
4 года 2 месяца
Сообщений:
1236

Репутация: 127

[+] [-]
Вне форума [Профиль] [ЛС]

Хождение за три моря (2 серии)
Страна: СССР, Индия
Жанр: биографический, исторический, приключения
Год выпуска: 1957
Продолжительность: 01:31:25 + 00:51:56
Режиссёры: Василий Пронин, Ходжа Ахмад Аббас
В ролях: Наргис, Олег Стриженов, Ия Арепина, Вячеслав Баландин, Виталий Беляков, Иван Жеваго, Притхвирадж Капур, Степан Каюков, Никифор Колофидин, Варвара Обухова, Борис Терентьев, Леонид Топчиев, Владимир Тягушев, Всеволод Якут, Лев Лобов, Михаил Трояновский
Описание: Тверской купец Афанасий Никитин давно мечтал о путешествиях и дальних странах. Мечты становятся реальностью, когда он отправляется в Индию - страну чудес, которую не посещал ни один европеец. Невероятные приключения, опасности и предательство, настоящая любовь и верность - всё пришлось испытать путешественнику...
Доп. информация: Историко-биографический фильм, снятый по путевым заметкам русского путешественника и первооткрывателя Афанасия Никитина. Его сочинение "Хождение за три моря", рассказывающее о государственном строе, хозяйстве, религии, быте и природе Индии, стало не только точным источником сведений об этой стране, но и памятником русской литературы. Эта книга была переведена на многие языки.
Премьера - 8 января 1958 года.

Исходник (DVD-9)
Качество видео: DVDRip-AVC
Формат видео: MKV
Видео: AVC (H.264), 720x438@1024x438 (2.35:1), 25 fps, 2473 kbps
Аудио: 48 kHz, AC-3, 6 ch, 448 kbps

MediaInfo

1-я серия

Общее
Уникальный идентификатор : 235106901832857492494683749350389353985 (0xB0DFF136750B9B09BDA88E1770D48E01)
Полное имя : D:\Фильмы\ZA3MORYA\Хождение за три моря (1957)\01. Хождение за три моря (1957).mkv
Формат : Matroska
Версия формата : Version 4 / Version 2
Размер файла : 1,87 Гбайт
Продолжительность : 1 ч. 31 м.
Общий поток : 2923 Кбит/сек
Дата кодирования : UTC 2013-04-18 18:28:52
Программа кодирования : mkvmerge v6.1.0 ('Old Devil') built on Mar 2 2013 14:32:37
Библиотека кодирования : libebml v1.3.0 + libmatroska v1.4.0
Видео
Идентификатор : 1
Формат : AVC
Формат/Информация : Advanced Video Codec
Профиль формата : High@L4.1
Параметр CABAC формата : Да
Параметр ReFrames формата : 6 кадров
Идентификатор кодека : V_MPEG4/ISO/AVC
Продолжительность : 1 ч. 31 м.
Битрейт : 2473 Кбит/сек
Ширина : 720 пикселей
Высота : 438 пикселей
Соотношение сторон : 2,35:1
Соотношение сторон в оригинале : 2,35:1
Частота кадров : 25,000 кадров/сек
Цветовое пространство : YUV
Субдискретизация насыщенности : 4:2:0
Битовая глубина : 8 бит
Тип развёртки : Прогрессивная
Бит/(Пиксели*Кадры) : 0.314
Размер потока : 1,54 Гбайт (83%)
Библиотека кодирования : x264 core 130 r2273 b3065e6
Настройки программы : cabac=1 / ref=6 / deblock=1:-1:-1 / analyse=0x3:0x133 / me=umh / subme=9 / psy=1 / psy_rd=1.00:0.00 / mixed_ref=1 / me_range=32 / chroma_me=1 / trellis=2 / 8x8dct=1 / cqm=0 / deadzone=21,11 / fast_pskip=1 / chroma_qp_offset=-2 / threads=3 / lookahead_threads=1 / sliced_threads=0 / nr=0 / decimate=1 / interlaced=0 / bluray_compat=0 / constrained_intra=0 / bframes=9 / b_pyramid=2 / b_adapt=2 / b_bias=0 / direct=3 / weightb=1 / open_gop=0 / weightp=2 / keyint=250 / keyint_min=25 / scenecut=40 / intra_refresh=0 / rc_lookahead=60 / rc=2pass / mbtree=1 / bitrate=2473 / ratetol=1.0 / qcomp=0.60 / qpmin=0 / qpmax=69 / qpstep=4 / cplxblur=20.0 / qblur=0.5 / ip_ratio=1.40 / aq=1:1.00
Язык : English
Default : Да
Forced : Нет
Аудио
Идентификатор : 2
Формат : AC-3
Формат/Информация : Audio Coding 3
Расширение режима : CM (complete main)
Параметр Endianness формата : Big
Идентификатор кодека : A_AC3
Продолжительность : 1 ч. 31 м.
Вид битрейта : Постоянный
Битрейт : 448 Кбит/сек
Каналы : 6 каналов
Расположение каналов : Front: L C R, Side: L R, LFE
Частота : 48,0 КГц
Битовая глубина : 16 бит
Метод сжатия : С потерями
Размер потока : 293 Мбайт (15%)
Default : Да
Forced : Нет

2-я серия

Общее
Уникальный идентификатор : 246656989216605588879551712938470701967 (0xB990687CAE155A51B4FC4F4828647B8F)
Полное имя : D:\Фильмы\ZA3MORYA\Хождение за три моря (1957)\02. Хождение за три моря (1957).mkv
Формат : Matroska
Версия формата : Version 4 / Version 2
Размер файла : 1,06 Гбайт
Продолжительность : 51 м.
Общий поток : 2924 Кбит/сек
Дата кодирования : UTC 2013-04-18 18:33:45
Программа кодирования : mkvmerge v6.1.0 ('Old Devil') built on Mar 2 2013 14:32:37
Библиотека кодирования : libebml v1.3.0 + libmatroska v1.4.0
Видео
Идентификатор : 1
Формат : AVC
Формат/Информация : Advanced Video Codec
Профиль формата : High@L4.1
Параметр CABAC формата : Да
Параметр ReFrames формата : 6 кадров
Идентификатор кодека : V_MPEG4/ISO/AVC
Продолжительность : 51 м.
Битрейт : 2473 Кбит/сек
Ширина : 720 пикселей
Высота : 438 пикселей
Соотношение сторон : 2,35:1
Соотношение сторон в оригинале : 2,35:1
Частота кадров : 25,000 кадров/сек
Цветовое пространство : YUV
Субдискретизация насыщенности : 4:2:0
Битовая глубина : 8 бит
Тип развёртки : Прогрессивная
Бит/(Пиксели*Кадры) : 0.314
Размер потока : 898 Мбайт (83%)
Библиотека кодирования : x264 core 130 r2273 b3065e6
Настройки программы : cabac=1 / ref=6 / deblock=1:-1:-1 / analyse=0x3:0x133 / me=umh / subme=9 / psy=1 / psy_rd=1.00:0.00 / mixed_ref=1 / me_range=32 / chroma_me=1 / trellis=2 / 8x8dct=1 / cqm=0 / deadzone=21,11 / fast_pskip=1 / chroma_qp_offset=-2 / threads=3 / lookahead_threads=1 / sliced_threads=0 / nr=0 / decimate=1 / interlaced=0 / bluray_compat=0 / constrained_intra=0 / bframes=9 / b_pyramid=2 / b_adapt=2 / b_bias=0 / direct=3 / weightb=1 / open_gop=0 / weightp=2 / keyint=250 / keyint_min=25 / scenecut=40 / intra_refresh=0 / rc_lookahead=60 / rc=2pass / mbtree=1 / bitrate=2473 / ratetol=1.0 / qcomp=0.60 / qpmin=0 / qpmax=69 / qpstep=4 / cplxblur=20.0 / qblur=0.5 / ip_ratio=1.40 / aq=1:1.00
Язык : English
Default : Да
Forced : Нет
Аудио
Идентификатор : 2
Формат : AC-3
Формат/Информация : Audio Coding 3
Расширение режима : CM (complete main)
Параметр Endianness формата : Big
Идентификатор кодека : A_AC3
Продолжительность : 51 м.
Вид битрейта : Постоянный
Битрейт : 448 Кбит/сек
Каналы : 6 каналов
Расположение каналов : Front: L C R, Side: L R, LFE
Частота : 48,0 КГц
Битовая глубина : 16 бит
Метод сжатия : С потерями
Размер потока : 166 Мбайт (15%)
Default : Да
Forced : Нет
Показать сообщения:    

Текущее время: Сегодня 02:12

Часовой пояс: GMT



Вы не можете начинать темы
Вы не можете отвечать на сообщения
Вы не можете редактировать свои сообщения
Вы не можете удалять свои сообщения
Вы не можете голосовать в опросах
Вы не можете прикреплять файлы к сообщениям
Вы не можете скачивать файлы