Важное объявление!
У Нас Все раздачи мультитрекерные, при нуле пиров в релизах, можете смело вставать на закачку!
 
Автор Сообщение

HUNTER

Стаж:
4 года 8 месяцев
Сообщений:
62128

Репутация: 101

[+] [-]
Вне форума [Профиль] [ЛС]

-- --Ходячие мертвецы / The Walking Dead --
--Год выпуска: 2012-2013
Выпущено: США ,AMC Studios, Circle of Confusion, Darkwoods Productions, Valhalla Motion Pictures
Жанр: Ужасы, триллер, фантастика
Продолжительность: 00:44:00
Автор идеи: Эрнест Р. Дикерсон, Гвинет Хордер-Пэйтон
Сезон: 3
Серия: 1-13
Количество серий в сезоне: 16
Озвучка:Профессиональная многоголосая закадровая[Fox Crime]
Субтитры: Нет--Режиссер: Дарабонт, Эрнест Р. Дикерсон, Гай Ферленд и др.--В ролях: Джон Бернтал, Джеффри ДеМунн, Лори Холден, Эндрю Линкольн, Деррик МакЛеод, Адам Минарович, Чендлер Риггз, Майкл Рукер, Сара Уэйн Кэллис и др.--Описание: После страшной болезни, превратившей жителей Земли в зомби, небольшая группа пока еще живых людей изо дня в день борется за выживание в новом, враждебном мире. Под предводительством бывшего полицейского Рика они ищут безопасное для жизни место, но зомби — это не самое страшное, что их ждет, основная опасность — это жестокое внутреннее соперничество среди выживших.--Качество : WEB-DLRip-AVC 1080p
Формат: MPEG-4
Видео кодек: H264
Видео: 4164Кбит/сек,1920х1080(16.9),в 25.000кадр/сек,AVC(Baseline@L4.0)(1Ref Frames)
Аудио кодек: AAC
Аудио Russian Dolby Digital 5.1:455Кбит/сек,44.1КГц,6каналов,AAC,(Version4)(LC)----

Доп. информация:

Звуковая дорожка сделана путем наложения чистого голоса озвучивателей на центральный канал оригинальной дорожки. Качество идентично звуковой дорожке.
--

Список эпизодов сезона

01. Семена / Seed
02. Больной / Sick
03. Пройдемся / Walk with Me
04. Убийца внутри / Killer Within
05. Только скажи / Say the Word
06. Затравленные / Hounded
07. Когда мертвые стучатся / When the Dead Come Knocking
08. Рожденный страдать / Made To Suffer
09.Король самоубийства / The Suicide King
10. Дом / Home
11. Я не Иуда / I Ain't a Judas
12. Лучше умереть / Good As Dead
13. Последствия / Aftermath

14. Это война / This Is War
15. Не увлекайся мной / Don't Turn On Me
16. Месть / Revenge
--

MediaInfo сезона

Общее
Полное имя : D:\Новая папка\The_Walking_Dead_S03_RUS[Fox_Crime]_DD5.1_x264_Nikolai.Baranov_WEB-DLRip-AVC_(1080p)\The_Walking_Dead_2012_S03E01_rus[Fox_Crime]_DD5.1_x264_Nikolai.Baranov_WEB-DLRip-AVC_(1080p).mp4
Формат : MPEG-4
Профиль формата : Base Media
Идентификатор кодека : isom
Размер файла : 1,39 Гбайт
Продолжительность : 43 м.
Режим общего битрейта : Переменный
Общий поток : 4624 Кбит/сек
Дата кодирования : UTC 2012-10-19 07:26:12
Дата пометки : UTC 2012-10-19 07:26:12
Программа кодирования : Lavf51.12.1
Видео
Идентификатор : 1
Формат : AVC
Формат/Информация : Advanced Video Codec
Профиль формата : [url=mailto:Baseline@L4.0]Baseline@L4.0[/url]
Параметр CABAC формата : Нет
Параметр ReFrames формата : 1 кадр
Параметр GOP формата : M=1, N=12
Идентификатор кодека : avc1
Идентификатор кодека/Информация : Advanced Video Coding
Продолжительность : 43 м.
Вид битрейта : Переменный
Битрейт : 4164 Кбит/сек
Максимальный битрейт : 6000 Кбит/сек
Ширина : 1920 пикселей
Высота : 1080 пикселей
Соотношение сторон : 16:9
Режим частоты кадров : Постоянный
Частота кадров : 25,000 кадров/сек
Частота кадров в оригинале : 24,000 кадра/сек
Цветовое пространство : YUV
Субдискретизация насыщенности : 4:2:0
Битовая глубина : 8 бит
Тип развёртки : Прогрессивная
Бит/(Пиксели*Кадры) : 0.080
Размер потока : 1,25 Гбайт (90%)
Дата кодирования : UTC 2012-10-19 07:26:12
Дата пометки : UTC 2012-10-19 07:26:12
Аудио
Идентификатор : 2
Формат : AAC
Формат/Информация : Advanced Audio Codec
Профиль формата : LC
Идентификатор кодека : 40
Продолжительность : 43 м.
Вид битрейта : Переменный
Битрейт : 455 Кбит/сек
Каналы : 6 каналов
Расположение каналов : Front: L C R, Side: L R, LFE
Частота : 44,1 КГц
Метод сжатия : С потерями
Размер потока : 140 Мбайт (10%)
Дата кодирования : UTC 2012-10-19 07:26:12
Дата пометки : UTC 2012-10-19 07:26:12
---- ---Внимание! Раздача пополняется по мере выхода новых серий!--

Внимание! Раздача ведётся путём добавления новых серий!

Раздача ведётся путём добавления новых серий; при каждом добавлении создётся новый торрент.
Чтобы начать докачку новой серии, пользователям необходимо сделать следующее:
1. остановить скачивание,
2. удалить старый торрент у себя из клиента (старые серии удалять не надо),
3. скачать новый торрент и запустить его у себя в клиенте вместо старого, при этом указать клиенту путь в старую папку, куда и должно происходить скачивание новых серий.
Ваш клиент при этом должен произвести хеширование (проверку) старой папки (если не производит сам - помогите ему сделать это), и будет докачивать только те серии которых у вас ещё нет. Старые серии при этом не удаляются, а продолжают раздаваться!
Eсли вы уже удалили старые серии, то предотвратить повторную закачку старых серий можно, отжав галочку в соответсвующих местах при запуске нового торрента. По возможности, желательно не удалять старые серии как можно дольше, чтобы релизёр не столько продолжал раздавать старые серии, а смог сконцентрироваться на новых.
Совет для тех, кто не хочет ждать перехеширования:
Создайте ещё одну папку рядом с папкой сериала (рядом, а не в ней!!!). Каждую новую серию после удачной загрузки копируйте в новую папку так чтобы ваша основная папка всегда была пуста. Когда ваш новый торрент предложит вам закачать все файлы, выберете только последнюю. Для сидирования же укажите адрес новой папки.
Как закачать отдельный файл из торрента или докачать ранее пропущенные файлы торрента!

Как закачать отдельный файл

1. Открыть торрент
2. Снять галки с тех файлов торрента, которые мы не хотим закачивать. Оставляем только на нужных нам файлах (файле).
3. Нажать О.К.
В клиенте utorrent
Инструкция
1) Открыть торрент

2) Снять галки с тех файлов торрента, которые мы не хотим закачивать:
* либо вручную, снимая с каждого файла галку( скрин №1)
* либо, нажав кнопку "Снять метки (Select None)", сняв сразу со всех файлов(скрин №2)
№1

№2

Оставляем только на нужных нам файлах (файле).

3)Нажать О.К
--Внимание!!! 12.03. 2013. РАЗДАЧА ОБНОВЛЕНА.ОБНОВИТЕ ТОРЕНТ ФАЙЛ.ПРИЯТНОГО ПРОСМОТРА.Сериал вернулся с перерыва, снова побив рекорды и оставшись самым рейтинговым сериалом на телевидении на данный момент. --Релиз от: Nikolai.Baranov. ---

_________________
Показать сообщения:    

Текущее время: Сегодня 22:57

Часовой пояс: GMT



Вы не можете начинать темы
Вы не можете отвечать на сообщения
Вы не можете редактировать свои сообщения
Вы не можете удалять свои сообщения
Вы не можете голосовать в опросах
Вы не можете прикреплять файлы к сообщениям
Вы не можете скачивать файлы
Наши партнеры: интернет магазин Ивановского трикотажа textilla.ru