Важное объявление!
У Нас Все раздачи мультитрекерные, при нуле пиров в релизах, можете смело вставать на закачку!
 
Автор Сообщение

димитри37

Стаж:
3 года 11 месяцев
Сообщений:
1236

Репутация: 127

[+] [-]
Вне форума [Профиль] [ЛС]

Хоббит: Нежданное путешествие / The Hobbit: An Unexpected Journey

ЗОЛТОЙ ГЛОБУС 2013 Оскар 2013
Название: Хоббит: Нежданное путешествие
Оригинальное название: The Hobbit: An Unexpected Journey
Год выпуска: 2012
Жанр: Фэнтези, приключения
Выпущено: США, Новая Зеландия, 3Foot7, Metro-Goldwyn-Mayer (MGM), New Line Cinema, WingNut Films
Продолжительность: 02:49:37
Перевод: Дублированный, авторский одноголосый
Субтитры: Русские, украинские, английские, болгарские, польские, греческие, чешские, испанские, голландские, финские, норвежские, шведские, португальские, турецкие, китайские
Режиссер: Питер Джексон
В ролях: Мартин Фриман, Йен МакКеллен, Ричард Армитидж, Джеймс Несбитт, Кен Стотт, Грэм МакТавиш, Уильям Кирчер, Стивен Хантер, Дин О’Горман, Эйдан Тернер, Джон Коллен, Питер Хэмблтон, Джед Брофи, Энди Серкис, Кейт Бланшетт, Элайджа Вуд, Хьюго Уивинг, Кристофер Ли, Иэн Холм, Марк Хэдлоу

О фильме: С чего началось то, что навсегда изменило мир? С потери гномьим народом своего родного дома и горячего желания его вернуть, пронесенного даже сквозь года! А причем же здесь хоббит Бильбо Бэггинс? Ведь он не гном и с домом у него все в порядке - кладовые полны припасов, а шкафчики - маминой посуды! Почему волшебник Гэндальф выбрал именно его в спутники тринадцати гномам под предводительством легендарного воина Торина Дубощита? Что же на самом деле так глубоко спрятано в этом полурослике, и поможет ли это отважным гномам обрести то, ради чего они не раз будут готовы встречаться со смертью?
Внимание: Видео Hi10P - на бытовых плеерах может не воспроизводится,
10 битное видео с 48 Кадр/с не будет проигрываться на слабых компьютерах и встроенных ТВ-плеерах!
Качество: BDRip 1080p
Видео: MPEG-4 AVC, 20 Мбит/с, 1920x800, 48 кадр/с
Аудио 1: Русский (AC3, 6 ch, 448 Кбит/с)- Дубляж
Аудио 2: Русский (DTS, 6 ch, 1510 Кбит/c)- А.Сербин
Аудио 3: Украинский (AC3, 6 ch, 448 Кбит/с)
Аудио 4: Английский (DTS, 6 ch, 1510 Кбит/c)

Доп.инфо

•Видеоряд от HDMaNiAcS
•За лицензионный и авторский звук, спасибо HD-Club.
•Сохранены оригинальные чаптеры как на Blu-ray.
•Перевод Ю. Сербина выкуплен в рамках сервиса "Озвучивание". Спонсоры: ultrajeka, Baron0580, tambov68, C_Vic, DaviD18_85, denismgn1987, ZeRoNe, khapev2, nimph, xerman13 и пользователи форума e180.ru.
•За работу над дорогой Ю.Сербина большое спасибо AndrewPlacid
•Авторский перевод субтитров от Voronine выполнен по заказу ultrajeka.
•Fix OCR, italics, overlapping, etc... @ Dorothea.

Награды:

Оскар, 2013 год
• Номинации (3):
» Лучшая работа художника-постановщика
» Лучшие визуальные эффекты
» Лучший грим и прически
Золотой глобус, 2013 год
• Номинации (3):
» Лучший звук
» Лучшие визуальные эффекты
» Лучший грим/прически

MediaInfo

Формат : Matroska
Версия формата : Version 2
Размер файла : 28,3 Гбайт
Продолжительность : 2 ч. 49 м.
Общий поток : 23,9 Мбит/сек
Дата кодирования : UTC 2013-04-02 18:34:34
Программа кодирования : mkvmerge v4.3.0 ('Escape from the Island') сборка от Sep 5 2010 10:30:51
Библиотека кодирования : libebml v1.0.0 + libmatroska v1.0.0
Видео
Идентификатор : 1
Формат : AVC
Формат/Информация : Advanced Video Codec
Профиль формата : High 10@L4.1
Параметр CABAC формата : Да
Параметр ReFrames формата : 5 кадров
Идентификатор кодека : V_MPEG4/ISO/AVC
Продолжительность : 2 ч. 49 м.
Битрейт : 20,0 Мбит/сек
Ширина : 1920 пикселей
Высота : 800 пикселей
Соотношение сторон : 2,40:1
Режим частоты кадров : Постоянный
Частота кадров : 48,000 кадров/сек
Цветовое пространство : YUV
Субдискретизация насыщенности : 4:2:0
Битовая глубина : 10 бит
Тип развёртки : Прогрессивная
Бит/(Пиксели*Кадры) : 0.271
Размер потока : 23,1 Гбайт (82%)
Библиотека кодирования : x264 core 130 r2273kMod b3065e6
Настройки программы : cabac=1 / ref=5 / deblock=1:-3:-3 / analyse=0x3:0x113 / me=tesa / subme=11 / psy=1 / fade_compensate=0.00 / psy_rd=1.00:0.10 / mixed_ref=1 / me_range=24 / chroma_me=1 / trellis=2 / 8x8dct=1 / cqm=0 / deadzone=21,11 / fast_pskip=1 / chroma_qp_offset=-3 / threads=12 / lookahead_threads=2 / sliced_threads=0 / nr=0 / decimate=1 / interlaced=0 / bluray_compat=0 / constrained_intra=0 / bframes=8 / b_pyramid=2 / b_adapt=2 / b_bias=0 / direct=3 / weightb=1 / open_gop=0 / weightp=2 / keyint=480 / keyint_min=48 / scenecut=40 / intra_refresh=0 / rc=2pass / mbtree=0 / bitrate=20000 / ratetol=1.0 / qcomp=0.60 / qpmin=10 / qpmax=81 / qpstep=4 / cplxblur=20.0 / qblur=0.5 / ip_ratio=1.40 / pb_ratio=1.30 / aq=2:0.90
Язык : English
Default : Да
Forced : Нет
Аудио #1
Идентификатор : 2
Формат : AC-3
Формат/Информация : Audio Coding 3
Расширение режима : CM (complete main)
Параметр Endianness формата : Big
Идентификатор кодека : A_AC3
Продолжительность : 2 ч. 49 м.
Вид битрейта : Постоянный
Битрейт : 448 Кбит/сек
Каналы : 6 каналов
Расположение каналов : Front: L C R, Side: L R, LFE
Частота : 48,0 КГц
Битовая глубина : 16 бит
Метод сжатия : С потерями
Размер потока : 544 Мбайт (2%)
Заголовок : Дублированный - [Blu-Ray]
Язык : Russian
Default : Да
Forced : Нет
Аудио #2
Идентификатор : 3
Формат : DTS
Формат/Информация : Digital Theater Systems
Режим : 16
Параметр Endianness формата : Big
Идентификатор кодека : A_DTS
Продолжительность : 2 ч. 49 м.
Вид битрейта : Постоянный
Битрейт : 1509 Кбит/сек
Каналы : 6 каналов
Расположение каналов : Front: L C R, Side: L R, LFE
Частота : 48,0 КГц
Битовая глубина : 24 бит
Метод сжатия : С потерями
Размер потока : 1,79 Гбайт (6%)
Заголовок : Авторский - [Ю. Сербин]
Язык : Russian
Default : Нет
Forced : Нет
Аудио #3
Идентификатор : 4
Формат : AC-3
Формат/Информация : Audio Coding 3
Расширение режима : CM (complete main)
Параметр Endianness формата : Big
Идентификатор кодека : A_AC3
Продолжительность : 2 ч. 49 м.
Вид битрейта : Постоянный
Битрейт : 448 Кбит/сек
Каналы : 6 каналов
Расположение каналов : Front: L C R, Side: L R, LFE
Частота : 48,0 КГц
Битовая глубина : 16 бит
Метод сжатия : С потерями
Размер потока : 544 Мбайт (2%)
Язык : Ukrainian
Default : Нет
Forced : Нет
Аудио #4
Идентификатор : 5
Формат : DTS
Формат/Информация : Digital Theater Systems
Режим : 16
Параметр Endianness формата : Big
Идентификатор кодека : A_DTS
Продолжительность : 2 ч. 49 м.
Вид битрейта : Постоянный
Битрейт : 1509 Кбит/сек
Каналы : 6 каналов
Расположение каналов : Front: L C R, Side: L R, LFE
Частота : 48,0 КГц
Битовая глубина : 24 бит
Метод сжатия : С потерями
Задержка видео : 11 мс.
Размер потока : 1,79 Гбайт (6%)
Заголовок : Original
Язык : English
Default : Нет
Forced : Нет
Текст #1
Идентификатор : 6
Формат : UTF-8
Идентификатор кодека : S_TEXT/UTF8
Идентификатор кодека/Информация : UTF-8 Plain Text
Заголовок : Forced
Язык : Russian
Default : Да
Forced : Да
Текст #2
Идентификатор : 7
Формат : UTF-8
Идентификатор кодека : S_TEXT/UTF8
Идентификатор кодека/Информация : UTF-8 Plain Text
Заголовок : Blu-ray
Язык : Russian
Default : Нет
Forced : Нет
Текст #3
Идентификатор : 8
Формат : UTF-8
Идентификатор кодека : S_TEXT/UTF8
Идентификатор кодека/Информация : UTF-8 Plain Text
Заголовок : Voronine
Язык : Russian
Default : Нет
Forced : Нет
Текст #4
Идентификатор : 9
Формат : UTF-8
Идентификатор кодека : S_TEXT/UTF8
Идентификатор кодека/Информация : UTF-8 Plain Text
Заголовок : Forced
Язык : Ukrainian
Default : Нет
Forced : Нет
Текст #5
Идентификатор : 10
Формат : UTF-8
Идентификатор кодека : S_TEXT/UTF8
Идентификатор кодека/Информация : UTF-8 Plain Text
Язык : Bulgarian
Default : Нет
Forced : Нет
Текст #6
Идентификатор : 11
Формат : UTF-8
Идентификатор кодека : S_TEXT/UTF8
Идентификатор кодека/Информация : UTF-8 Plain Text
Заголовок : Full
Язык : English
Default : Нет
Forced : Нет
Текст #7
Идентификатор : 12
Формат : UTF-8
Идентификатор кодека : S_TEXT/UTF8
Идентификатор кодека/Информация : UTF-8 Plain Text
Заголовок : SDH
Язык : English
Default : Нет
Forced : Нет
Текст #8
Идентификатор : 13
Формат : UTF-8
Идентификатор кодека : S_TEXT/UTF8
Идентификатор кодека/Информация : UTF-8 Plain Text
Заголовок : SDH-Colored
Язык : English
Default : Нет
Forced : Нет
Текст #9
Идентификатор : 14
Формат : UTF-8
Идентификатор кодека : S_TEXT/UTF8
Идентификатор кодека/Информация : UTF-8 Plain Text
Язык : Polish
Default : Нет
Forced : Нет
Текст #10
Идентификатор : 15
Формат : UTF-8
Идентификатор кодека : S_TEXT/UTF8
Идентификатор кодека/Информация : UTF-8 Plain Text
Язык : Greek
Default : Нет
Forced : Нет
Текст #11
Идентификатор : 16
Формат : UTF-8
Идентификатор кодека : S_TEXT/UTF8
Идентификатор кодека/Информация : UTF-8 Plain Text
Язык : Czech
Default : Нет
Forced : Нет
Текст #12
Идентификатор : 17
Формат : UTF-8
Идентификатор кодека : S_TEXT/UTF8
Идентификатор кодека/Информация : UTF-8 Plain Text
Язык : Spanish
Default : Нет
Forced : Нет
Текст #13
Идентификатор : 18
Формат : UTF-8
Идентификатор кодека : S_TEXT/UTF8
Идентификатор кодека/Информация : UTF-8 Plain Text
Язык : Dutch
Default : Нет
Forced : Нет
Текст #14
Идентификатор : 19
Формат : UTF-8
Идентификатор кодека : S_TEXT/UTF8
Идентификатор кодека/Информация : UTF-8 Plain Text
Язык : Finnish
Default : Нет
Forced : Нет
Текст #15
Идентификатор : 20
Формат : UTF-8
Идентификатор кодека : S_TEXT/UTF8
Идентификатор кодека/Информация : UTF-8 Plain Text
Язык : Norwegian
Default : Нет
Forced : Нет
Текст #16
Идентификатор : 21
Формат : UTF-8
Идентификатор кодека : S_TEXT/UTF8
Идентификатор кодека/Информация : UTF-8 Plain Text
Язык : Swedish
Default : Нет
Forced : Нет
Текст #17
Идентификатор : 22
Формат : UTF-8
Идентификатор кодека : S_TEXT/UTF8
Идентификатор кодека/Информация : UTF-8 Plain Text
Язык : Portuguese
Default : Нет
Forced : Нет
Текст #18
Идентификатор : 23
Формат : UTF-8
Идентификатор кодека : S_TEXT/UTF8
Идентификатор кодека/Информация : UTF-8 Plain Text
Язык : Turkish
Default : Нет
Forced : Нет
Текст #19
Идентификатор : 24
Формат : UTF-8
Идентификатор кодека : S_TEXT/UTF8
Идентификатор кодека/Информация : UTF-8 Plain Text
Язык : Chinese
Default : Нет
Forced : Нет
Меню
00:00:00.000 : en:00:00:00.000
00:08:51.531 : en:00:08:51.531
00:12:58.903 : en:00:12:58.903
00:16:34.619 : en:00:16:34.619
00:20:50.666 : en:00:20:50.666
00:25:09.007 : en:00:25:09.007
00:33:14.409 : en:00:33:14.409
00:38:26.804 : en:00:38:26.804
00:43:40.368 : en:00:43:40.368
00:50:12.301 : en:00:50:12.301
00:55:16.939 : en:00:55:16.939
00:57:04.838 : en:00:57:04.838
01:07:51.943 : en:01:07:51.943
01:12:11.369 : en:01:12:11.369
01:16:03.559 : en:01:16:03.559
01:22:06.463 : en:01:22:06.463
01:28:49.991 : en:01:28:49.991
01:32:03.518 : en:01:32:03.518
01:33:42.534 : en:01:33:42.534
01:40:29.607 : en:01:40:29.607
01:43:06.847 : en:01:43:06.847
01:49:12.963 : en:01:49:12.963
01:54:04.588 : en:01:54:04.588
01:56:58.094 : en:01:56:58.094
02:10:27.945 : en:02:10:27.945
02:12:26.021 : en:02:12:26.021
02:13:37.718 : en:02:13:37.718
02:17:59.438 : en:02:17:59.438
02:20:09.359 : en:02:20:09.359
02:22:59.112 : en:02:22:59.112
02:33:58.563 : en:02:33:58.563
02:39:27.558 : en:02:39:27.558

Скриншоты



Показать сообщения:    

Текущее время: Сегодня 17:43

Часовой пояс: GMT



Вы не можете начинать темы
Вы не можете отвечать на сообщения
Вы не можете редактировать свои сообщения
Вы не можете удалять свои сообщения
Вы не можете голосовать в опросах
Вы не можете прикреплять файлы к сообщениям
Вы не можете скачивать файлы
Наши партнеры: интернет магазин Ивановского трикотажа textilla.ru